<?xml version="1.0" standalone="no"?>
<!DOCTYPE svg PUBLIC "-//W3C//DTD SVG 1.1//EN" "http://www.w3.org/Graphics/SVG/1.1/DTD/svg11.dtd" >
<svg xmlns="http://www.w3.org/2000/svg" xmlns:xlink="http://www.w3.org/1999/xlink" version="1.1">
<metadata>
Created by FontForge 20170731 at Wed Oct 19 13:27:49 2016
 By Aleksey,,,
Copyright 2015 The Rubik Project Authors
</metadata>
<defs>
<font id="Rubik-Medium" horiz-adv-x="0" >
  <font-face 
    font-family="Rubik Medium"
    font-weight="500"
    font-stretch="normal"
    units-per-em="1000"
    panose-1="0 0 6 0 0 0 0 0 0 0"
    ascent="800"
    descent="-200"
    x-height="520"
    cap-height="700"
    bbox="-496 -282 1140 922"
    underline-thickness="50"
    underline-position="-125"
    unicode-range="U+000D-FB4B"
  />
<missing-glyph horiz-adv-x="290" 
 />
    <glyph glyph-name="fi" unicode="fi" horiz-adv-x="616" 
d="M129 7q-7 7 -7 17v389h-81q-10 0 -17 7t-7 17v59q0 10 7 17t17 7h81v40q0 91 49 135.5t148 44.5h207q11 0 17.5 -6.5t6.5 -17.5v-59q0 -10 -7 -17t-17 -7h-202q-39 0 -55 -19t-16 -59v-35h273q11 0 17.5 -6.5t6.5 -17.5v-472q0 -10 -6.5 -17t-17.5 -7h-83q-10 0 -17 7
t-7 17v389h-166v-389q0 -10 -6.5 -17t-17.5 -7h-83q-10 0 -17 7z" />
    <glyph glyph-name="fl" unicode="fl" horiz-adv-x="656" 
d="M129 7q-7 7 -7 17v389h-81q-10 0 -17 7t-7 17v59q0 10 7 17t17 7h81v40q0 91 49 135.5t148 44.5h60q11 0 17.5 -6.5t6.5 -17.5v-59q0 -10 -7 -17t-17 -7h-55q-39 0 -55 -19t-16 -59v-35h205v196q0 10 7 17t17 7h83q11 0 17.5 -6.5t6.5 -17.5v-692q0 -10 -6.5 -17
t-17.5 -7h-83q-10 0 -17 7t-7 17v389h-205v-389q0 -10 -6.5 -17t-17.5 -7h-83q-10 0 -17 7z" />
    <glyph glyph-name="f_f" unicode="ff" horiz-adv-x="751" 
d="M129 7q-7 7 -7 17v389h-81q-10 0 -17 7t-7 17v59q0 10 7 17t17 7h81v40q0 91 49 135.5t148 44.5h69q10 0 17 -7t7 -17v-59q0 -10 -7 -17t-17 -7h-64q-39 0 -55 -19t-16 -59v-35h205v40q0 91 49 135.5t148 44.5h69q11 0 17.5 -6.5t6.5 -17.5v-59q0 -10 -7 -17t-17 -7h-64
q-39 0 -55 -19t-16 -59v-35h125q11 0 17.5 -6.5t6.5 -17.5v-59q0 -10 -6.5 -17t-17.5 -7h-125v-389q0 -10 -6.5 -17t-17.5 -7h-83q-10 0 -17 7t-7 17v389h-205v-389q0 -10 -6.5 -17t-17.5 -7h-83q-10 0 -17 7z" />
    <glyph glyph-name="f_f_i" unicode="ffi" horiz-adv-x="952" 
d="M129 7q-7 7 -7 17v389h-81q-10 0 -17 7t-7 17v59q0 10 7 17t17 7h81v40q0 91 49 135.5t148 44.5h69q10 0 17 -7t7 -17v-59q0 -10 -7 -17t-17 -7h-64q-39 0 -55 -19t-16 -59v-35h205v40q0 91 49 135.5t148 44.5h207q11 0 17.5 -6.5t6.5 -17.5v-59q0 -10 -7 -17t-17 -7
h-202q-39 0 -55 -19t-16 -59v-35h273q11 0 17.5 -6.5t6.5 -17.5v-472q0 -10 -6.5 -17t-17.5 -7h-83q-10 0 -17 7t-7 17v389h-166v-389q0 -10 -6.5 -17t-17.5 -7h-83q-10 0 -17 7t-7 17v389h-205v-389q0 -10 -6.5 -17t-17.5 -7h-83q-10 0 -17 7z" />
    <glyph glyph-name="f_f_l" unicode="ffl" horiz-adv-x="992" 
d="M129 7q-7 7 -7 17v389h-81q-10 0 -17 7t-7 17v59q0 10 7 17t17 7h81v40q0 91 49 135.5t148 44.5h69q10 0 17 -7t7 -17v-59q0 -10 -7 -17t-17 -7h-64q-39 0 -55 -19t-16 -59v-35h205v40q0 91 49 135.5t148 44.5h60q11 0 18 -7t7 -17v-59q0 -10 -7.5 -17t-17.5 -7h-55
q-39 0 -55 -19t-16 -59v-35h205v196q0 10 7 17t18 7h82q11 0 17.5 -6.5t6.5 -17.5v-692q0 -10 -6.5 -17t-17.5 -7h-82q-11 0 -18 7t-7 17v389h-205v-389q0 -10 -6.5 -17t-17.5 -7h-83q-10 0 -17 7t-7 17v389h-205v-389q0 -10 -6.5 -17t-17.5 -7h-83q-10 0 -17 7z" />
    <glyph glyph-name=".notdef" horiz-adv-x="290" 
 />
    <glyph glyph-name=".null" 
 />
    <glyph glyph-name="nonmarkingreturn" unicode="&#xd;" horiz-adv-x="228" 
 />
    <glyph glyph-name="NULL" 
 />
    <glyph glyph-name="NULL" 
 />
    <glyph glyph-name="space" unicode=" " horiz-adv-x="228" 
 />
    <glyph glyph-name="exclam" unicode="!" horiz-adv-x="269" 
d="M76 202q-7 7 -7 17v457q0 11 7 17.5t17 6.5h83q10 0 17 -7t7 -17v-457q0 -10 -7 -17t-17 -7h-83q-10 0 -17 7zM70 7q-7 7 -7 17v95q0 11 7 17.5t17 6.5h94q11 0 18 -7t7 -17v-95q0 -10 -7 -17t-18 -7h-94q-10 0 -17 7z" />
    <glyph glyph-name="quotedbl" unicode="&#x22;" horiz-adv-x="415" 
d="M68 491l-20 192q-1 12 5 19.5t18 7.5h89q11 0 17.5 -7t5.5 -20l-20 -192q-4 -25 -25 -25h-45q-21 0 -25 25zM252 491l-20 192q-1 12 5 19.5t17 7.5h90q11 0 17 -7t5 -20l-20 -192q-2 -25 -24 -25h-45q-21 0 -25 25z" />
    <glyph glyph-name="numbersign" unicode="#" horiz-adv-x="691" 
d="M143.5 45q-6.5 6 -5.5 15l17 108h-85q-10 0 -16.5 6.5t-6.5 16.5v58q0 10 6.5 16.5t16.5 6.5h100l22 150h-96q-10 0 -16.5 6.5t-6.5 16.5v58q0 10 6.5 16.5t16.5 6.5h112l16 108q2 9 8 15t15 6h59q9 0 15 -6t6 -15l-16 -108h124l16 108q2 9 8 15t15 6h59q9 0 15 -6t6 -15
l-16 -108h83q10 0 16.5 -6.5t6.5 -16.5v-58q0 -10 -6.5 -16.5t-16.5 -6.5h-98l-23 -150h95q10 0 16.5 -6.5t6.5 -16.5v-58q0 -10 -6.5 -16.5t-16.5 -6.5h-110l-16 -108q-2 -9 -8 -15t-16 -6h-59q-9 0 -15.5 6t-5.5 15l17 108h-124l-16 -108q-2 -9 -8 -15t-16 -6h-59
q-9 0 -15.5 6zM273 272h124l22 150h-123z" />
    <glyph glyph-name="dollar" unicode="$" horiz-adv-x="644" 
d="M273 -93.5q-7 6.5 -7 17.5v70q-72 7 -123.5 35t-78 68.5t-28.5 86.5q0 8 6.5 14.5t15.5 6.5h90q12 0 18.5 -4.5t12.5 -14.5q11 -34 46.5 -57t97.5 -23q69 0 104.5 23.5t35.5 64.5q0 27 -18 45t-54.5 31.5t-107.5 32.5q-118 28 -173 74t-55 132q0 78 56.5 132t154.5 66v69
q0 11 7 17.5t17 6.5h62q11 0 17.5 -6.5t6.5 -17.5v-71q65 -9 111.5 -38.5t71 -68.5t26.5 -76q0 -9 -6 -15t-15 -6h-95q-21 0 -29 18q-6 32 -39.5 53.5t-83.5 21.5q-55 0 -86.5 -21t-31.5 -61q0 -27 15.5 -45t50 -32t98.5 -30q89 -20 141.5 -45t77.5 -63t25 -97
q0 -87 -62.5 -141t-168.5 -65v-70q0 -11 -6.5 -17.5t-17.5 -6.5h-62q-10 0 -17 6.5z" />
    <glyph glyph-name="percent" unicode="%" horiz-adv-x="785" 
d="M86.5 383q-39.5 35 -43.5 95q-1 17 -1 45q0 30 1 48q4 62 42 98t107 36t107.5 -36t42.5 -98q2 -36 2 -48q0 -11 -2 -45q-4 -60 -43.5 -95t-106.5 -35q-66 0 -105.5 35zM95 5.5q-6 5.5 -6 14.5q0 6 4 11l493 650q8 10 15 14.5t20 4.5h53q10 0 15.5 -5.5t5.5 -14.5
q0 -6 -4 -11l-493 -650q-8 -10 -15 -14.5t-19 -4.5h-53q-10 0 -16 5.5zM234.5 440q13.5 17 16.5 43q2 34 2 42q0 11 -2 41q-2 26 -16 43.5t-43 17.5q-28 0 -42 -17.5t-16 -43.5q-1 -15 -1 -41q0 -25 1 -42q2 -25 15.5 -42.5t42.5 -17.5t42.5 17zM486.5 30.5
q-39.5 36.5 -43.5 97.5q-1 17 -1 45q0 29 1 47q4 62 42 98t107 36q70 0 108 -36t42 -98q2 -36 2 -47t-2 -45q-4 -61 -43.5 -97.5t-106.5 -36.5q-66 0 -105.5 36.5zM635.5 89.5q13.5 17.5 15.5 42.5q2 34 2 43q0 10 -2 40q-2 26 -16 43.5t-43 17.5q-28 0 -42 -17.5t-16 -43.5
q-1 -15 -1 -40q0 -26 1 -43q2 -25 15.5 -42.5t42.5 -17.5q30 0 43.5 17.5z" />
    <glyph glyph-name="ampersand" unicode="&#x26;" horiz-adv-x="719" 
d="M166 15q-55 25 -85.5 70.5t-30.5 105.5q0 62 36 107.5t102 83.5q-42 45 -60.5 81.5t-18.5 75.5q0 46 24 85t70 62.5t109 23.5q60 0 104.5 -22.5t68.5 -61.5t24 -85q0 -59 -37 -101t-108 -82l143 -141q35 61 52 132q1 8 6.5 12.5t14.5 4.5h74q9 0 15 -6t6 -14
q-1 -39 -28 -97.5t-64 -107.5l107 -108q7 -7 7 -15t-5 -13t-14 -5h-98q-16 0 -26 10l-55 53q-82 -73 -205 -73q-73 0 -128 25zM367 483q25 23 25 55t-23 52.5t-57 20.5q-33 0 -56.5 -20t-23.5 -53q0 -23 13 -46t48 -58q49 26 74 49zM421 146l-159 156q-85 -46 -85 -106
q0 -46 34.5 -73.5t82.5 -27.5q76 0 127 51z" />
    <glyph glyph-name="quotesingle" unicode="'" horiz-adv-x="231" 
d="M68 491l-20 192q-1 12 5 19.5t18 7.5h89q11 0 17.5 -7t5.5 -20l-20 -192q-4 -25 -25 -25h-45q-21 0 -25 25z" />
    <glyph glyph-name="parenleft" unicode="(" horiz-adv-x="362" 
d="M114 -47.5q-65 111.5 -65 356.5t65 356t201 111q10 0 17 -7t7 -17v-61q0 -10 -7 -17t-16 -7q-55 -2 -86 -40t-44.5 -115t-13.5 -203t13.5 -203.5t44.5 -115.5t86 -40q9 0 16 -7t7 -17v-61q0 -10 -7 -17t-17 -7q-136 0 -201 111.5z" />
    <glyph glyph-name="parenright" unicode=")" horiz-adv-x="362" 
d="M31 -152q-7 7 -7 17v61q0 10 7 17t15 7q55 2 86.5 40t45 115.5t13.5 203.5t-13.5 203t-45 115t-86.5 40q-8 0 -15 7t-7 17v61q0 10 7 17t17 7q135 0 200 -111.5t65 -355.5q0 -245 -65 -356.5t-200 -111.5q-10 0 -17 7z" />
    <glyph glyph-name="asterisk" unicode="*" horiz-adv-x="445" 
d="M92 442q-9 6 -9 18q0 6 4 12l5 7l69 60l-91 8l-8 2q-8 2 -12 10.5t-2 17.5l23 70q2 8 10.5 12t16.5 2q3 0 8 -4l78 -46l-19 89l-1 8q0 8 6.5 15t15.5 7h73q9 0 15.5 -7t6.5 -15l-1 -8l-20 -89l79 46l8 4q2 1 5 1q8 0 14.5 -4t7.5 -11l24 -70l1 -6q0 -7 -4.5 -13.5
t-11.5 -8.5l-7 -2l-92 -9l69 -59q6 -6 6 -7q4 -6 4 -12q0 -12 -9 -18l-59 -44q-6 -3 -13 -3q-13 0 -18 8q-1 1 -2 2.5l-3 4.5l-36 85l-37 -85l-3 -4.5t-2 -2.5q-5 -8 -18 -8q-7 0 -13 3z" />
    <glyph glyph-name="plus" unicode="+" horiz-adv-x="614" 
d="M260 40q-7 7 -7 17v195h-191q-10 0 -17 7t-7 17v54q0 10 7 17t17 7h191v189q0 11 7 17.5t17 6.5h60q11 0 17.5 -6.5t6.5 -17.5v-189h191q10 0 17 -7t7 -17v-54q0 -10 -6.5 -17t-17.5 -7h-191v-195q0 -10 -6.5 -17t-17.5 -7h-60q-10 0 -17 7z" />
    <glyph glyph-name="comma" unicode="," horiz-adv-x="265" 
d="M46 -69q-5 6 -4 15l26 171q6 32 33 32h93q7 0 12.5 -5.5t5.5 -12.5q0 -5 -3 -14l-65 -166q-10 -26 -33 -26h-52q-8 0 -13 6z" />
    <glyph glyph-name="hyphen" unicode="-" horiz-adv-x="480" 
d="M69 249q-7 7 -7 17v68q0 10 7 17t17 7h308q11 0 17.5 -6.5t6.5 -17.5v-68q0 -10 -7 -17t-17 -7h-308q-10 0 -17 7z" />
    <glyph glyph-name="period" unicode="." horiz-adv-x="269" 
d="M67 7q-7 7 -7 17v101q0 10 7 17t17 7h101q10 0 17 -7t7 -17v-101q0 -10 -6.5 -17t-17.5 -7h-101q-10 0 -17 7z" />
    <glyph glyph-name="slash" unicode="/" horiz-adv-x="509" 
d="M31 -78q-6 6 -6 15q0 6 2 11l340 817q4 8 12 14.5t20 6.5h65q9 0 15 -6t6 -15q0 -6 -2 -11l-342 -817q-3 -8 -10.5 -14.5t-20.5 -6.5h-65q-8 0 -14 6z" />
    <glyph glyph-name="zero" unicode="0" horiz-adv-x="659" 
d="M129.5 64q-65.5 74 -71.5 194q-1 27 -1 92q0 66 1 94q5 118 72 192t199 74t199 -74t72 -192q2 -56 2 -94t-2 -92q-6 -120 -71.5 -194t-199.5 -74t-199.5 74zM422 147.5q31 40.5 33 115.5q1 29 1 89t-1 87q-2 73 -33 114t-93 42q-62 -1 -93 -42t-33 -114q-1 -27 -1 -87
t1 -89q2 -75 33 -115.5t93 -40.5t93 40.5z" />
    <glyph glyph-name="one" unicode="1" horiz-adv-x="464" 
d="M260 7q-7 7 -7 17v516l-151 -116q-6 -5 -15 -5q-12 0 -19 10l-43 56q-5 7 -5 14q0 12 11 20l224 174q11 7 25 7h90q10 0 17 -7t7 -17v-652q0 -10 -7 -17t-17 -7h-93q-10 0 -17 7z" />
    <glyph glyph-name="two" unicode="2" horiz-adv-x="620" 
d="M52 7q-7 7 -7 17v52q0 28 25 47l156 155q71 56 109.5 91.5t57.5 65.5t19 59q0 47 -25 74t-76 27q-50 0 -78.5 -29.5t-35.5 -76.5q-3 -12 -11.5 -17.5t-18.5 -5.5h-90q-9 0 -15 6t-6 15q2 59 32.5 110.5t87.5 83t134 31.5q80 0 136 -27.5t84 -75.5t28 -109
q0 -67 -37.5 -121.5t-116.5 -116.5l-139 -141h283q11 0 18 -7t7 -18v-72q0 -11 -7 -17.5t-18 -6.5h-479q-10 0 -17 7z" />
    <glyph glyph-name="three" unicode="3" horiz-adv-x="631" 
d="M161.5 18q-61.5 28 -92 70.5t-32.5 87.5q0 9 6 15t15 6h92q22 0 30 -20q22 -71 132 -71q61 0 95.5 28t34.5 80t-31.5 75.5t-92.5 23.5h-103q-10 0 -17 7t-7 17v43q0 19 13 30l178 174h-285q-11 0 -18 7t-7 17v67q0 11 7 18t18 7h430q11 0 18 -7t7 -18v-61q0 -17 -13 -28
l-172 -177l12 -1q96 -8 152.5 -58t56.5 -143q0 -66 -35.5 -115t-98 -75.5t-142.5 -26.5q-89 0 -150.5 28z" />
    <glyph glyph-name="four" unicode="4" horiz-adv-x="653" 
d="M378 7q-7 7 -7 17v128h-317q-10 0 -17 7t-7 17v69q0 16 11 30l295 408q5 8 15 12.5t22 4.5h110q11 0 17.5 -6.5t6.5 -17.5v-405h90q11 0 17.5 -6.5t6.5 -17.5v-71q0 -10 -6.5 -17t-17.5 -7h-90v-128q0 -10 -6.5 -17t-17.5 -7h-88q-10 0 -17 7zM171 267h203v287z" />
    <glyph glyph-name="five" unicode="5" horiz-adv-x="621" 
d="M163.5 17q-60.5 28 -91.5 74t-33 99v2q0 8 6.5 13.5t14.5 5.5h95q23 0 29 -20q14 -44 46.5 -65t76.5 -21q56 0 92.5 34t36.5 94q0 54 -36.5 87.5t-92.5 33.5q-30 0 -49 -8t-37 -22q-2 -1 -9 -6t-12.5 -7t-11.5 -2h-94q-9 0 -15.5 6.5t-6.5 15.5l34 341q1 13 9.5 20.5
t20.5 7.5h376q11 0 17.5 -6.5t6.5 -17.5v-68q0 -10 -6.5 -17t-17.5 -7h-289l-16 -162q23 15 53 24.5t78 9.5q65 0 120.5 -27.5t89 -79t33.5 -119.5q0 -73 -34 -127.5t-96 -84t-144 -29.5q-83 0 -143.5 28z" />
    <glyph glyph-name="six" unicode="6" horiz-adv-x="628" 
d="M172.5 22q-63.5 32 -98 88t-34.5 126q0 88 78 194l182 250q8 10 15 15t20 5h95q9 0 14.5 -6.5t5.5 -15.5q0 -7 -4 -13l-140 -193q16 4 42 4q67 -1 123.5 -32.5t90 -85.5t33.5 -120q0 -68 -33.5 -124.5t-96 -90t-145.5 -33.5q-84 0 -147.5 32zM413 140.5q39 34.5 39 95.5
q0 60 -38.5 94.5t-95.5 34.5q-56 0 -94.5 -34.5t-38.5 -94.5q0 -61 38.5 -95.5t94.5 -34.5t95 34.5z" />
    <glyph glyph-name="seven" unicode="7" horiz-adv-x="545" 
d="M130 6.5q-6 6.5 -6 15.5q0 3 2 9l240 549h-313q-10 0 -17 7t-7 17v71q0 11 6.5 18t17.5 7h440q11 0 18 -7t7 -18v-63q0 -21 -10 -43l-238 -545q-6 -11 -13 -17.5t-19 -6.5h-93q-9 0 -15 6.5z" />
    <glyph glyph-name="eight" unicode="8" horiz-adv-x="657" 
d="M178.5 17.5q-62.5 27.5 -95.5 76.5t-33 112q0 56 27.5 99.5t74.5 66.5q-37 23 -57 59.5t-20 83.5q0 88 66.5 141.5t186.5 53.5t186 -53t66 -141q0 -47 -19.5 -83.5t-56.5 -60.5q48 -23 75.5 -66.5t27.5 -100.5q0 -63 -33 -111.5t-96 -76t-150 -27.5t-149.5 27.5z
M414.5 442.5q34.5 25.5 34.5 67.5q0 43 -34 69t-87 26q-52 0 -86 -26t-34 -69t34 -68.5t86 -25.5q52 1 86.5 26.5zM426.5 125q39.5 30 39.5 80t-39.5 80t-98.5 30t-98 -29.5t-39 -80.5q0 -50 39 -80t98 -30t98.5 30z" />
    <glyph glyph-name="nine" unicode="9" horiz-adv-x="618" 
d="M168 6.5q-6 6.5 -6 15.5q0 6 5 13l147 202q-17 -4 -42 -4q-66 2 -120.5 33.5t-86.5 84t-32 116.5q0 63 31 118.5t92 90t147 34.5q87 0 149 -32.5t93.5 -87t31.5 -119.5q0 -41 -13 -77t-29.5 -62.5t-46.5 -68.5l-175 -243q-8 -10 -15 -15t-19 -5h-96q-9 0 -15 6.5z
M396 375.5q37 34.5 37 91.5q0 58 -37 92.5t-92 34.5q-54 0 -91 -34.5t-37 -92.5q0 -57 36.5 -91.5t91.5 -34.5t92 34.5z" />
    <glyph glyph-name="colon" unicode=":" horiz-adv-x="275" 
d="M70 357q-7 7 -7 17v96q0 11 7 18t17 7h100q11 0 18 -7t7 -18v-96q0 -10 -7 -17t-18 -7h-100q-10 0 -17 7zM70 7q-7 7 -7 17v96q0 11 7 18t17 7h100q11 0 18 -7t7 -18v-96q0 -10 -7 -17t-18 -7h-100q-10 0 -17 7z" />
    <glyph glyph-name="semicolon" unicode=";" horiz-adv-x="287" 
d="M83 357q-7 7 -7 17v96q0 11 7 18t17 7h100q11 0 18 -7t7 -18v-96q0 -10 -7 -17t-18 -7h-100q-10 0 -17 7zM55 -69q-5 6 -4 15l27 171q2 14 10 23t22 9h93q7 0 12.5 -5.5t5.5 -12.5q0 -5 -3 -14l-64 -166q-6 -12 -13 -19t-21 -7h-52q-8 0 -13 6z" />
    <glyph glyph-name="less" unicode="&#x3c;" horiz-adv-x="505" 
d="M401 63l-339 232q-15 10 -22 20t-7 24v24q0 14 6.5 24t22.5 21l339 231q11 9 20 9t14.5 -5.5t5.5 -15.5v-77q0 -13 -6 -20.5t-19 -16.5l-242 -162l242 -162q13 -9 19 -16.5t6 -19.5v-78q0 -9 -6 -14.5t-14 -5.5q-10 0 -20 8z" />
    <glyph glyph-name="equal" unicode="=" horiz-adv-x="568" 
d="M73 380q-7 7 -7 17v56q0 11 7 17.5t17 6.5h388q10 0 17 -7t7 -17v-56q0 -10 -7 -17t-17 -7h-388q-10 0 -17 7zM73 130q-7 7 -7 17v56q0 11 7 17.5t17 6.5h388q10 0 17 -7t7 -17v-56q0 -10 -7 -17t-17 -7h-388q-10 0 -17 7z" />
    <glyph glyph-name="greater" unicode="&#x3e;" horiz-adv-x="504" 
d="M70 60.5q-6 5.5 -6 14.5v78q0 12 6 19.5t19 16.5l242 162l-242 162q-13 9 -19 16.5t-6 20.5v77q0 10 6 15.5t14 5.5q9 0 20 -9l339 -231q16 -11 22.5 -21t6.5 -24v-24q0 -14 -7 -24t-22 -20l-339 -232q-10 -8 -20 -8q-8 0 -14 5.5z" />
    <glyph glyph-name="question" unicode="?" horiz-adv-x="566" 
d="M223 195q-6 6 -6 14q0 21 1 32q5 47 30 83t69 80q34 34 50.5 56t18.5 46q4 41 -26.5 65t-73.5 24q-97 0 -117 -97q-7 -23 -29 -23h-87q-10 0 -16.5 7t-6.5 18q2 55 33.5 103t90.5 77.5t139 29.5q83 0 136.5 -26.5t78 -67.5t24.5 -85q0 -50 -22.5 -87t-66.5 -85
q-32 -34 -49.5 -58.5t-23.5 -52.5q-4 -25 -5 -34q-5 -13 -11 -19t-17 -6h-99q-9 0 -15 6zM218 7q-7 7 -7 17v89q0 10 7 17t17 7h99q10 0 17.5 -7t7.5 -17v-89q0 -10 -7 -17t-18 -7h-99q-10 0 -17 7z" />
    <glyph glyph-name="at" unicode="@" horiz-adv-x="839" 
d="M160.5 -42.5q-91.5 82.5 -106.5 228.5q-2 38 -2 87q0 50 2 84q10 91 53 161.5t120.5 111.5t184.5 41q355 0 373 -314q2 -40 2 -65q0 -37 -2 -63q-4 -72 -44 -111t-100 -39q-44 0 -73.5 17t-43.5 37q-16 -27 -44.5 -45.5t-83.5 -18.5q-75 0 -118.5 54t-43.5 150t43 150.5
t117 54.5q36 0 60 -12.5t41 -34.5v15q0 11 7 17.5t17 6.5h40q11 0 17.5 -6.5t6.5 -17.5v-208q0 -37 15.5 -56t42.5 -19q31 0 44 23t13 52q2 30 2 63q0 15 -2 51q-8 120 -73.5 177t-212.5 57q-122 0 -189.5 -61.5t-79.5 -172.5q-3 -25 -3 -79q0 -53 3 -82
q11 -112 80.5 -171.5t196.5 -59.5q62 0 102 8.5t60.5 20t45.5 29.5q9 7 14 10.5t14 3.5h56q10 0 17 -7t7 -17q0 -5 -6 -15q-106 -118 -310 -118q-168 0 -259.5 82.5zM474.5 183q20.5 30 20.5 90t-20.5 90.5t-66.5 30.5q-86 0 -86 -121q0 -55 21.5 -87.5t64.5 -32.5
q46 0 66.5 30z" />
    <glyph glyph-name="A" unicode="A" horiz-adv-x="694" 
d="M20 6q-6 6 -6 15l2 9l240 645q10 25 36 25h110q26 0 36 -25l240 -645l2 -9q0 -9 -6.5 -15t-14.5 -6h-89q-21 0 -29 19l-46 121h-296l-46 -121q-8 -19 -29 -19h-89q-9 0 -15 6zM234 256h226l-113 308z" />
    <glyph glyph-name="B" unicode="B" horiz-adv-x="687" 
d="M85 7q-7 7 -7 17v651q0 11 6.5 18t17.5 7h290q117 0 175 -51.5t58 -140.5q0 -52 -25.5 -88.5t-59.5 -52.5q42 -19 71 -62t29 -98q0 -93 -63 -150t-176 -57h-299q-10 0 -17 7zM374 413q51 0 78.5 25t27.5 67t-27 65t-79 23h-155v-180h155zM384 107q52 0 81 28.5t29 72.5
t-29.5 72.5t-80.5 28.5h-165v-202h165z" />
    <glyph glyph-name="C" unicode="C" horiz-adv-x="685" 
d="M134.5 60.5q-75.5 70.5 -80.5 200.5q-1 27 -1 88q0 62 1 90q5 128 81 199.5t213 71.5q89 0 155 -30.5t102.5 -83.5t38.5 -119v-2q0 -8 -6.5 -13.5t-14.5 -5.5h-97q-12 0 -18 5.5t-10 19.5q-15 62 -52 87.5t-98 25.5q-143 0 -149 -160q-1 -27 -1 -83t1 -85
q6 -160 149 -160q60 0 97.5 25.5t52.5 87.5q4 14 10 19.5t18 5.5h97q9 0 15.5 -6t5.5 -15q-2 -66 -38.5 -119t-102.5 -83.5t-155 -30.5q-138 0 -213.5 70.5z" />
    <glyph glyph-name="D" unicode="D" horiz-adv-x="703" 
d="M85 7q-7 7 -7 17v651q0 11 6.5 18t17.5 7h244q295 0 301 -272q2 -58 2 -78q0 -19 -2 -77q-4 -140 -75.5 -206.5t-220.5 -66.5h-249q-10 0 -17 7zM346 116q83 0 120 37t39 123q2 60 2 75q0 16 -2 74q-2 82 -41 120.5t-123 38.5h-122v-468h127z" />
    <glyph glyph-name="E" unicode="E" horiz-adv-x="623" 
d="M85 7q-7 7 -7 17v651q0 11 6.5 18t17.5 7h441q11 0 18 -7t7 -18v-67q0 -11 -7 -17.5t-18 -6.5h-328v-175h306q11 0 18 -7t7 -18v-63q0 -11 -7 -17.5t-18 -6.5h-306v-181h336q11 0 18 -6.5t7 -17.5v-68q0 -11 -7 -17.5t-18 -6.5h-449q-10 0 -17 7z" />
    <glyph glyph-name="F" unicode="F" horiz-adv-x="602" 
d="M85 7q-7 7 -7 17v651q0 11 6.5 18t17.5 7h435q11 0 18 -7t7 -18v-72q0 -10 -7 -17t-18 -7h-320v-188h300q11 0 18 -7t7 -17v-72q0 -10 -7 -17t-18 -7h-300v-247q0 -10 -7 -17t-18 -7h-90q-10 0 -17 7z" />
    <glyph glyph-name="G" unicode="G" horiz-adv-x="701" 
d="M136.5 61q-76.5 71 -81.5 198q-1 29 -1 93t1 93q4 124 82 194.5t214 70.5q92 0 158.5 -31.5t100.5 -78t36 -91.5q0 -9 -6 -15t-16 -6h-105q-10 0 -15 4t-9 13q-14 37 -49 63t-95 26q-70 0 -109.5 -37.5t-41.5 -116.5q-1 -29 -1 -88q0 -58 1 -88q2 -81 42 -119.5
t110 -38.5q71 0 114 38t43 114v31h-122q-10 0 -17 7t-7 17v55q0 10 7 17t17 7h240q11 0 18 -7t7 -17v-106q0 -83 -37 -144.5t-105 -94.5t-159 -33q-138 0 -214.5 71z" />
    <glyph glyph-name="H" unicode="H" horiz-adv-x="730" 
d="M85 7q-7 7 -7 17v651q0 11 6.5 18t17.5 7h92q11 0 18 -7t7 -18v-257h292v257q0 11 7 18t17 7h93q11 0 17.5 -7t6.5 -18v-651q0 -10 -6.5 -17t-17.5 -7h-93q-10 0 -17 7t-7 17v267h-292v-267q0 -10 -7 -17t-18 -7h-92q-10 0 -17 7z" />
    <glyph glyph-name="I" unicode="I" horiz-adv-x="300" 
d="M85 7q-7 7 -7 17v652q0 11 7 17.5t17 6.5h96q11 0 17.5 -6.5t6.5 -17.5v-652q0 -10 -6.5 -17t-17.5 -7h-96q-10 0 -17 7z" />
    <glyph glyph-name="J" unicode="J" horiz-adv-x="653" 
d="M168.5 15q-61.5 25 -99 75t-39.5 121q0 9 6 15.5t16 6.5h97q23 0 29 -25q8 -52 42.5 -77t87.5 -25q62 0 95.5 40.5t33.5 113.5v320h-339q-10 0 -17 7t-7 18v71q0 11 7 17.5t17 6.5h459q11 0 17.5 -7t6.5 -18v-419q0 -83 -34 -143t-96.5 -91.5t-146.5 -31.5
q-74 0 -135.5 25z" />
    <glyph glyph-name="K" unicode="K" horiz-adv-x="633" 
d="M85 7q-7 7 -7 17v651q0 11 6.5 18t17.5 7h90q11 0 18 -7t7 -18v-234l223 241q15 18 39 18h102q8 0 14.5 -6t6.5 -15q0 -7 -5 -12l-272 -302l292 -331q4 -7 4 -13q0 -9 -6 -15t-14 -6h-105q-21 0 -30 8.5t-10 9.5l-239 264v-258q0 -10 -7 -17t-18 -7h-90q-10 0 -17 7z" />
    <glyph glyph-name="L" unicode="L" horiz-adv-x="581" 
d="M85 7q-7 7 -7 17v652q0 11 7 17.5t17 6.5h94q11 0 17.5 -6.5t6.5 -17.5v-556h317q11 0 18 -7t7 -17v-72q0 -10 -7 -17t-18 -7h-435q-10 0 -17 7z" />
    <glyph glyph-name="M" unicode="M" horiz-adv-x="812" 
d="M85 7q-7 7 -7 17v651q0 11 6.5 18t17.5 7h81q19 0 30 -19l193 -358l193 358q11 19 30 19h80q11 0 18 -7t7 -18v-651q0 -11 -7 -17.5t-18 -6.5h-86q-10 0 -17 7t-7 17v430l-139 -264q-11 -22 -33 -22h-42q-21 0 -34 22l-139 264v-430q0 -10 -6.5 -17t-17.5 -7h-86
q-10 0 -17 7z" />
    <glyph glyph-name="N" unicode="N" horiz-adv-x="707" 
d="M85 7q-7 7 -7 17v651q0 11 6.5 18t17.5 7h78q19 0 29 -17l286 -444v436q0 11 6.5 18t17.5 7h86q11 0 18 -7t7 -18v-650q0 -11 -7 -18t-17 -7h-79q-20 0 -30 17l-285 434v-427q0 -10 -6.5 -17t-17.5 -7h-86q-10 0 -17 7z" />
    <glyph glyph-name="O" unicode="O" horiz-adv-x="695" 
d="M135 59q-76 69 -80 205q-1 29 -1 85q0 57 1 86q4 133 82 204t211 71q132 0 210.5 -71t82.5 -204q2 -58 2 -86q0 -27 -2 -85q-4 -136 -80.5 -205t-212.5 -69q-137 0 -213 69zM454 146q39 40 42 123q2 60 2 81q0 23 -2 81q-3 82 -43 122.5t-105 40.5q-66 0 -106 -40.5
t-42 -122.5q-1 -29 -1 -81q0 -51 1 -81q2 -82 41.5 -122.5t106.5 -40.5t106 40z" />
    <glyph glyph-name="P" unicode="P" horiz-adv-x="660" 
d="M85 7q-7 7 -7 17v651q0 11 6.5 18t17.5 7h268q121 0 190 -57t69 -166q0 -108 -69 -163.5t-190 -55.5h-147v-234q0 -11 -7 -17.5t-18 -6.5h-96q-10 0 -17 7zM365 370q58 0 88.5 27.5t30.5 80.5q0 52 -29.5 81t-89.5 29h-144v-218h144z" />
    <glyph glyph-name="Q" unicode="Q" horiz-adv-x="695" 
d="M505.5 -58.5q-8.5 6.5 -15.5 16.5l-37 50q-45 -18 -106 -18q-136 0 -212.5 69t-80.5 205q-1 29 -1 85q0 57 1 86q4 133 82.5 204t210.5 71q133 0 211 -71t82 -204q2 -58 2 -86q0 -27 -2 -85q-4 -132 -72 -198l70 -100q3 -6 3 -10v-2q0 -8 -6 -13.5t-14 -5.5h-94
q-13 0 -21.5 6.5zM453.5 146.5q39.5 40.5 41.5 122.5q2 60 2 81q0 23 -2 81q-2 82 -42 122.5t-106 40.5t-105.5 -40.5t-42.5 -122.5q-1 -29 -1 -81q0 -51 1 -81q3 -83 42 -123t106 -40t106.5 40.5z" />
    <glyph glyph-name="R" unicode="R" horiz-adv-x="674" 
d="M85 7q-7 7 -7 17v651q0 11 6.5 18t17.5 7h259q123 0 192.5 -57t69.5 -162q0 -73 -35 -122.5t-98 -71.5l145 -255q3 -6 3 -11q0 -9 -6.5 -15t-14.5 -6h-92q-16 0 -25 7.5t-16 19.5l-128 237h-137v-240q0 -10 -7 -17t-18 -7h-92q-10 0 -17 7zM358 378q60 0 90 26.5t30 77.5
t-30 78.5t-90 27.5h-139v-210h139z" />
    <glyph glyph-name="S" unicode="S" horiz-adv-x="643" 
d="M168 17q-64 27 -97 71t-35 96q0 8 6 14.5t15 6.5h91q11 0 18 -5t13 -14q10 -34 45.5 -57t97.5 -23q70 0 105.5 23.5t35.5 64.5q0 27 -18 45t-54.5 31.5t-108.5 32.5q-118 28 -173 74t-55 132q0 58 32 103.5t91.5 71.5t138.5 26q83 0 143.5 -29t92 -72.5t33.5 -86.5
q0 -8 -6 -14.5t-15 -6.5h-95q-22 0 -30 18q-5 32 -39 53.5t-84 21.5q-55 0 -86.5 -21t-31.5 -61q0 -27 16 -45t50 -31.5t99 -30.5q89 -20 141.5 -45t77.5 -63t25 -97q0 -65 -35.5 -112.5t-100 -72.5t-149.5 -25q-90 0 -154 27z" />
    <glyph glyph-name="T" unicode="T" horiz-adv-x="606" 
d="M239 7q-7 7 -7 17v551h-185q-10 0 -17 7t-7 18v75q0 11 6.5 18t17.5 7h511q11 0 18 -7t7 -18v-75q0 -11 -7 -18t-18 -7h-184v-551q0 -10 -6.5 -17t-17.5 -7h-94q-10 0 -17 7z" />
    <glyph glyph-name="U" unicode="U" horiz-adv-x="714" 
d="M147 59q-75 69 -75 209v407q0 11 6.5 18t17.5 7h92q11 0 18 -7t7 -18v-407q0 -79 37.5 -119t106.5 -40t106.5 40t37.5 119v407q0 11 7 18t18 7h92q11 0 17.5 -7t6.5 -18v-407q0 -140 -74.5 -209t-209.5 -69q-136 0 -211 69z" />
    <glyph glyph-name="V" unicode="V" horiz-adv-x="675" 
d="M243 28l-214 642q-1 3 -1 9q0 9 6 15t15 6h89q13 0 21 -7t11 -15l167 -512l168 512q2 8 10 15t21 7h90q8 0 14.5 -6t6.5 -15l-2 -9l-213 -642q-10 -28 -39 -28h-111q-30 0 -39 28z" />
    <glyph glyph-name="W" unicode="W" horiz-adv-x="816" 
d="M157 30l-118 641l-1 8q0 9 6 15t15 6h90q13 0 19 -4.5t8 -15.5l83 -450l89 290q10 25 33 25h55q13 0 21 -7.5t11 -17.5l90 -290l82 450q3 20 28 20h90q8 0 14 -6t6 -15q0 -5 -1 -8l-118 -641q-2 -14 -11.5 -22t-24.5 -8h-68q-14 0 -23 7.5t-12 17.5l-112 332l-112 -332
q-8 -25 -35 -25h-68q-29 0 -36 30z" />
    <glyph glyph-name="X" unicode="X" horiz-adv-x="663" 
d="M23.5 6q-6.5 6 -6.5 15q0 4 4 12l223 324l-209 310q-4 6 -4 12q0 9 6.5 15t14.5 6h105q18 0 31 -19l146 -214l147 214q11 19 31 19h99q8 0 14.5 -6t6.5 -15q0 -4 -4 -12l-209 -310l224 -324q3 -6 3 -12q0 -9 -6 -15t-15 -6h-107q-18 0 -31 18l-158 225l-156 -225
q-13 -18 -31 -18h-104q-8 0 -14.5 6z" />
    <glyph glyph-name="Y" unicode="Y" horiz-adv-x="665" 
d="M269 7q-7 7 -7 17v225l-237 419q-3 9 -3 11q0 9 6.5 15t14.5 6h90q19 0 31 -19l168 -290l169 290q4 7 11.5 13t18.5 6h90q9 0 15 -6t6 -15q0 -6 -3 -11l-236 -419v-225q0 -11 -7 -17.5t-18 -6.5h-92q-10 0 -17 7z" />
    <glyph glyph-name="Z" unicode="Z" horiz-adv-x="627" 
d="M45.5 7q-6.5 7 -6.5 18v71q0 13 4.5 21t10.5 16l347 447h-328q-10 0 -17 7t-7 18v70q0 11 6.5 18t17.5 7h479q11 0 18 -7t7 -18v-70q0 -20 -13 -35l-339 -450h339q11 0 17.5 -6.5t6.5 -17.5v-72q0 -10 -6.5 -17t-17.5 -7h-501q-11 0 -17.5 7z" />
    <glyph glyph-name="bracketleft" unicode="[" horiz-adv-x="356" 
d="M74 -152.5q-7 6.5 -7 17.5v887q0 11 7 17.5t17 6.5h214q11 0 17.5 -6.5t6.5 -17.5v-62q0 -10 -6.5 -17t-17.5 -7h-115v-707h115q10 0 17 -7t7 -17v-70q0 -11 -6.5 -17.5t-17.5 -6.5h-214q-10 0 -17 6.5z" />
    <glyph glyph-name="backslash" unicode="\" horiz-adv-x="509" 
d="M378.5 -77.5q-7.5 6.5 -10.5 14.5l-342 817q-2 5 -2 11q0 9 6 15t14 6h66q12 0 20 -6.5t11 -14.5l341 -817q2 -5 2 -11q0 -9 -6 -15t-15 -6h-64q-13 0 -20.5 6.5z" />
    <glyph glyph-name="bracketright" unicode="]" horiz-adv-x="356" 
d="M33 -152q-7 7 -7 17v70q0 10 7 17t17 7h115v707h-115q-10 0 -17 7t-7 17v62q0 10 7 17t17 7h215q11 0 17.5 -6.5t6.5 -17.5v-887q0 -11 -6.5 -17.5t-17.5 -6.5h-215q-10 0 -17 7z" />
    <glyph glyph-name="asciicircum" unicode="^" horiz-adv-x="449" 
d="M56 596q0 9 9 18l97 100q10 10 17 13t18 3h55q10 0 17.5 -3t16.5 -13l98 -100q9 -9 9 -18q0 -13 -15 -13h-37q-19 0 -32 7l-85 53l-85 -53q-11 -7 -31 -7h-37q-15 0 -15 13z" />
    <glyph glyph-name="underscore" unicode="_" horiz-adv-x="741" 
d="M60 -50.5q-7 6.5 -7 17.5v67q0 11 7 17.5t17 6.5h587q11 0 18 -7t7 -17v-67q0 -10 -7 -17t-18 -7h-587q-10 0 -17 6.5z" />
    <glyph glyph-name="grave" unicode="`" horiz-adv-x="369" 
d="M209.5 598q-7.5 3 -16.5 10l-125 102q-5 5 -5 12q0 9 5 14.5t14 5.5h101q13 0 20.5 -4t16.5 -15l82 -99q5 -5 5 -13q0 -16 -16 -16h-63q-11 0 -18.5 3z" />
    <glyph glyph-name="a" unicode="a" horiz-adv-x="572" 
d="M123.5 10.5q-42.5 20.5 -67 55.5t-24.5 77q0 68 55 110t151 57l137 20v21q0 43 -22 65t-70 22q-33 0 -53 -12t-32.5 -24.5l-16.5 -16.5q-4 -12 -15 -12h-78q-9 0 -15.5 6t-6.5 16q1 25 24.5 56.5t72.5 55t121 23.5q118 0 172 -53t54 -139v-314q0 -10 -6.5 -17t-17.5 -7
h-83q-10 0 -17 7t-7 17v39q-22 -32 -62 -52.5t-100 -20.5q-51 0 -93.5 20.5zM341 122q35 36 35 104v20l-100 -16q-115 -18 -115 -77q0 -32 26.5 -49.5t63.5 -17.5q55 0 90 36z" />
    <glyph glyph-name="b" unicode="b" horiz-adv-x="614" 
d="M196 61v-37q0 -10 -7 -17t-18 -7h-80q-10 0 -17 7t-7 17v662q0 11 7 17.5t17 6.5h87q11 0 17.5 -6.5t6.5 -17.5v-222q56 66 153 66q101 0 155.5 -65.5t57.5 -171.5q1 -12 1 -33q0 -20 -1 -33q-4 -108 -58 -172.5t-155 -64.5q-104 0 -159 71zM431 230q1 10 1 30t-1 30
q-7 132 -114 132q-55 0 -84 -35t-31 -85q-1 -12 -1 -39q0 -26 1 -38q2 -53 30 -90t85 -37q107 0 114 132z" />
    <glyph glyph-name="c" unicode="c" horiz-adv-x="572" 
d="M115.5 51q-65.5 61 -69.5 169l-1 40l1 40q4 108 69.5 169t175.5 61q79 0 133.5 -28t81 -68.5t28.5 -77.5q1 -10 -6.5 -17t-17.5 -7h-89q-11 0 -16 4.5t-10 16.5q-15 38 -39.5 55t-62.5 17q-51 0 -79.5 -32t-30.5 -98l-1 -37l1 -33q6 -130 110 -130q39 0 63 16.5t39 55.5
q4 11 9.5 16t16.5 5h89q10 0 17.5 -7t6.5 -17q-2 -35 -28 -75.5t-80 -69.5t-135 -29q-110 0 -175.5 61z" />
    <glyph glyph-name="d" unicode="d" horiz-adv-x="614" 
d="M104 54.5q-54 64.5 -59 172.5l-1 33l1 33q4 106 58.5 171.5t155.5 65.5q96 0 153 -66v222q0 11 7 17.5t17 6.5h87q11 0 17.5 -6.5t6.5 -17.5v-662q0 -10 -6.5 -17t-17.5 -7h-81q-10 0 -17 7t-7 17v37q-55 -71 -159 -71q-101 0 -155 64.5zM381.5 134.5
q27.5 36.5 30.5 90.5q1 12 1 38q0 27 -1 39q-2 50 -31 85t-84 35q-107 0 -114 -132l-1 -30l1 -30q7 -132 114 -132q57 0 84.5 36.5z" />
    <glyph glyph-name="e" unicode="e" horiz-adv-x="578" 
d="M113.5 54q-65.5 64 -69.5 182l-1 25q0 125 65.5 197t181.5 72q119 0 183.5 -72t64.5 -192v-21q0 -10 -7 -17t-18 -7h-332v-8q2 -56 30.5 -92.5t78.5 -36.5q57 0 93 46q9 11 14 13.5t17 2.5h88q9 0 15.5 -5t6.5 -14q0 -24 -28.5 -56.5t-81.5 -56.5t-123 -24
q-112 0 -177.5 64zM400 306v2q0 59 -29.5 94.5t-80.5 35.5t-80 -35.5t-29 -94.5v-2h219z" />
    <glyph glyph-name="f" unicode="f" horiz-adv-x="415" 
d="M129 7q-7 7 -7 17v389h-81q-10 0 -17 7t-7 17v59q0 10 7 17t17 7h81v40q0 91 49 135.5t148 44.5h69q10 0 17 -7t7 -17v-59q0 -10 -7 -17t-17 -7h-64q-39 0 -55 -19t-16 -59v-35h125q10 0 17 -7t7 -17v-59q0 -10 -7 -17t-17 -7h-125v-389q0 -10 -6.5 -17t-17.5 -7h-83
q-10 0 -17 7z" />
    <glyph glyph-name="g" unicode="g" horiz-adv-x="616" 
d="M157 -190.5q-55 29.5 -78 67.5t-23 65q0 10 7 16.5t17 6.5h89q9 0 15.5 -4.5t10.5 -16.5q11 -26 33 -44.5t68 -18.5q60 0 88 26.5t28 92.5v68q-54 -64 -153 -64q-104 0 -156.5 63t-56.5 172l-1 27l1 27q4 107 57 172t156 65q53 0 93 -20t66 -54v39q0 11 7.5 18t17.5 7h82
q10 0 17 -7t7 -18l1 -482q0 -111 -62 -172t-187 -61q-89 0 -144 29.5zM381 146q28 36 31 88q1 8 1 32t-1 32q-3 52 -31 88t-84 36q-108 0 -114 -132l-1 -24q0 -156 115 -156q56 0 84 36z" />
    <glyph glyph-name="h" unicode="h" horiz-adv-x="630" 
d="M74 7q-7 7 -7 17v662q0 11 7 17.5t17 6.5h91q11 0 17.5 -6.5t6.5 -17.5v-228q60 72 161 72q92 0 147 -60.5t55 -164.5v-281q0 -10 -6.5 -17t-17.5 -7h-91q-11 0 -18 7t-7 17v275q0 58 -28.5 90.5t-81.5 32.5q-51 0 -82 -33t-31 -90v-275q0 -10 -6.5 -17t-17.5 -7h-91
q-10 0 -17 7z" />
    <glyph glyph-name="i" unicode="i" horiz-adv-x="265" 
d="M69 612q-7 7 -7 17v73q0 11 7 18t17 7h92q11 0 18 -7t7 -18v-73q0 -10 -7.5 -17t-17.5 -7h-92q-10 0 -17 7zM73 7q-7 7 -7 17v472q0 11 7 17.5t17 6.5h85q10 0 17 -7t7 -17v-472q0 -10 -7 -17t-17 -7h-85q-10 0 -17 7z" />
    <glyph glyph-name="j" unicode="j" horiz-adv-x="280" 
d="M79 612q-7 7 -7 17v73q0 10 7 17.5t17 7.5h97q10 0 17 -7t7 -18v-73q0 -10 -7 -17t-17 -7h-97q-10 0 -17 7zM-37.5 -183.5q-6.5 6.5 -6.5 17.5v59q0 10 6.5 17t17.5 7h26q42 0 56.5 21.5t14.5 63.5v494q0 11 7 17.5t17 6.5h88q11 0 17.5 -6.5t6.5 -17.5v-497
q0 -90 -49 -139.5t-145 -49.5h-39q-11 0 -17.5 6.5z" />
    <glyph glyph-name="k" unicode="k" horiz-adv-x="552" 
d="M74 7q-7 7 -7 17v662q0 11 7 17.5t17 6.5h83q10 0 17 -7t7 -17v-342l166 159q3 2 9.5 7.5t12.5 7.5t15 2h95q10 0 16 -6t6 -16q0 -9 -10 -18l-204 -193l229 -248q9 -9 9 -17q0 -10 -6 -16t-15 -6h-97q-14 0 -20.5 3.5t-16.5 13.5l-189 201v-194q0 -10 -7 -17t-17 -7h-83
q-10 0 -17 7z" />
    <glyph glyph-name="l" unicode="l" horiz-adv-x="266" 
d="M74 7q-7 7 -7 17v662q0 11 7 17.5t17 6.5h84q11 0 17.5 -6.5t6.5 -17.5v-662q0 -10 -6.5 -17t-17.5 -7h-84q-10 0 -17 7z" />
    <glyph glyph-name="m" unicode="m" horiz-adv-x="903" 
d="M73 7q-7 7 -7 17v472q0 11 7 17.5t17 6.5h79q11 0 17.5 -6.5t6.5 -17.5v-34q54 68 145 68q111 0 155 -89q24 40 68 64.5t95 24.5q82 0 134 -56t52 -163v-287q0 -10 -6.5 -17t-17.5 -7h-83q-10 0 -17 7t-7 17v279q0 63 -26.5 91t-69.5 28q-39 0 -66.5 -28.5t-27.5 -90.5
v-279q0 -10 -6.5 -17t-17.5 -7h-84q-10 0 -17 7t-7 17v279q0 62 -27 90.5t-69 28.5q-39 0 -66.5 -28.5t-27.5 -90.5v-279q0 -10 -6.5 -17t-17.5 -7h-85q-10 0 -17 7z" />
    <glyph glyph-name="n" unicode="n" horiz-adv-x="625" 
d="M73 7q-7 7 -7 17v472q0 11 7 17.5t17 6.5h83q11 0 17.5 -6.5t6.5 -17.5v-41q61 75 167 75q92 0 146 -60t54 -165v-281q0 -10 -6.5 -17t-17.5 -7h-90q-10 0 -17 7t-7 17v275q0 58 -28.5 90.5t-81.5 32.5q-51 0 -82 -33t-31 -90v-275q0 -10 -6.5 -17t-17.5 -7h-89
q-10 0 -17 7z" />
    <glyph glyph-name="o" unicode="o" horiz-adv-x="593" 
d="M115 50q-64 60 -69 166l-1 44l1 44q5 105 70 165.5t181 60.5q115 0 180 -60.5t70 -165.5q1 -12 1 -44t-1 -44q-5 -106 -69 -166t-181 -60q-118 0 -182 60zM378.5 124q28.5 33 30.5 97q1 10 1 39t-1 39q-2 64 -31 97.5t-81 33.5q-53 0 -82 -33.5t-31 -97.5l-1 -39l1 -39
q2 -64 31 -97t82 -33t81.5 33z" />
    <glyph glyph-name="p" unicode="p" horiz-adv-x="614" 
d="M74 -183.5q-7 6.5 -7 17.5v662q0 11 7 17.5t17 6.5h80q11 0 18 -7t7 -17v-40q53 74 159 74q101 0 155 -63.5t58 -170.5q1 -12 1 -36t-1 -36q-3 -105 -57.5 -169.5t-155.5 -64.5q-100 0 -153 71v-227q0 -11 -6.5 -17.5t-17.5 -6.5h-87q-10 0 -17 6.5zM431 230q1 10 1 30
t-1 30q-7 132 -114 132q-57 0 -85 -37t-30 -90q-1 -12 -1 -38t1 -39q2 -50 31 -85t84 -35q107 0 114 132z" />
    <glyph glyph-name="q" unicode="q" horiz-adv-x="614" 
d="M420 -183.5q-7 6.5 -7 17.5v227q-53 -71 -154 -71q-100 0 -154.5 64.5t-58.5 169.5l-1 36l1 36q4 107 58 170.5t155 63.5q105 0 160 -74v40q0 11 7 17.5t17 6.5h81q11 0 17.5 -6.5t6.5 -17.5v-662q0 -11 -6.5 -17.5t-17.5 -6.5h-87q-10 0 -17 6.5zM381.5 133
q29.5 35 31.5 85q1 13 1 39t-1 38q-3 54 -31 90.5t-85 36.5q-106 0 -113 -132q-1 -10 -1 -30t1 -30q7 -132 113 -132q55 0 84.5 35z" />
    <glyph glyph-name="r" unicode="r" horiz-adv-x="419" 
d="M73 7q-7 7 -7 17v471q0 11 7 18t17 7h82q11 0 18 -7t7 -18v-41q50 66 144 66h42q11 0 17.5 -6.5t6.5 -17.5v-73q0 -10 -6.5 -17t-17.5 -7h-79q-47 0 -74 -27t-27 -74v-274q0 -10 -7 -17t-17 -7h-89q-10 0 -17 7z" />
    <glyph glyph-name="s" unicode="s" horiz-adv-x="533" 
d="M137 13q-51 23 -75.5 53.5t-24.5 52.5q0 10 6.5 16t15.5 6h82q8 0 14 -8q5 -4 22.5 -19t40 -23.5t49.5 -8.5q40 0 65 15.5t25 44.5q0 20 -11.5 32.5t-41 23t-88.5 23.5q-85 18 -125.5 55t-40.5 98q0 40 24 75.5t71.5 58t113.5 22.5q68 0 117 -21.5t74.5 -51.5t25.5 -53
q0 -9 -6.5 -15.5t-15.5 -6.5h-75q-11 0 -17 8q-7 5 -22.5 18.5t-34.5 21.5t-46 8q-37 0 -57 -16t-20 -42q0 -18 9.5 -30t38.5 -22.5t87 -21.5q180 -35 180 -157q0 -71 -61.5 -115t-171.5 -44q-76 0 -127 23z" />
    <glyph glyph-name="t" unicode="t" horiz-adv-x="431" 
d="M165 47.5q-46 47.5 -46 139.5v226h-79q-10 0 -17 7t-7 17v59q0 10 7 17t17 7h79v166q0 11 7 17.5t17 6.5h83q11 0 17.5 -6.5t6.5 -17.5v-166h125q10 0 17 -7t7 -17v-59q0 -10 -7 -17t-17 -7h-125v-215q0 -43 15 -65t49 -22h70q11 0 17.5 -6.5t6.5 -17.5v-63
q0 -10 -6.5 -17t-17.5 -7h-82q-91 0 -137 47.5z" />
    <glyph glyph-name="u" unicode="u" horiz-adv-x="622" 
d="M114 50q-53 60 -53 165v281q0 11 7 17.5t17 6.5h90q10 0 17 -7t7 -17v-275q0 -123 107 -123q52 0 82.5 33t30.5 90v275q0 11 7 17.5t17 6.5h89q11 0 17.5 -6.5t6.5 -17.5v-472q0 -10 -6.5 -17t-17.5 -7h-83q-10 0 -17 7t-7 17v41q-55 -75 -166 -75q-92 0 -145 60z" />
    <glyph glyph-name="v" unicode="v" horiz-adv-x="575" 
d="M227 6.5q-8 6.5 -13 18.5l-188 464q-1 3 -1 9q0 9 6.5 15.5t14.5 6.5h83q20 0 27 -19l132 -349l132 349q2 7 8.5 13t17.5 6h83q9 0 15 -6.5t6 -15.5q0 -6 -1 -9l-187 -464q-11 -25 -36 -25h-76q-15 0 -23 6.5z" />
    <glyph glyph-name="w" unicode="w" horiz-adv-x="821" 
d="M175 25l-143 464q-1 3 -1 9q0 9 6 15.5t15 6.5h76q10 0 17.5 -6t9.5 -13l97 -329l103 326q3 9 10.5 15.5t19.5 6.5h51q12 0 19.5 -6.5t9.5 -15.5l104 -326l97 329q2 7 9 13t18 6h75q9 0 15.5 -6.5t6.5 -15.5l-2 -9l-143 -464q-4 -12 -11.5 -18.5t-20.5 -6.5h-66
q-26 0 -33 25l-103 314l-104 -314q-8 -25 -34 -25h-65q-25 0 -33 25z" />
    <glyph glyph-name="x" unicode="x" horiz-adv-x="565" 
d="M28.5 6.5q-6.5 6.5 -6.5 15.5t6 17l171 228l-158 214q-6 8 -6 17t6.5 15.5t15.5 6.5h88q11 0 16.5 -4.5t11.5 -12.5l112 -149l111 149q1 1 7.5 9t20.5 8h85q9 0 15 -6.5t6 -14.5q0 -10 -6 -18l-160 -215l172 -227q6 -8 6 -17t-6.5 -15.5t-15.5 -6.5h-92q-16 0 -27 16
l-120 158l-121 -158q-11 -16 -27 -16h-89q-9 0 -15.5 6.5z" />
    <glyph glyph-name="y" unicode="y" horiz-adv-x="575" 
d="M145.5 -184q-6.5 6 -6.5 14q0 7 4 16l79 185l-192 453q-4 9 -4 14q1 9 7 15.5t15 6.5h83q18 0 26 -19l133 -326l135 326q10 19 28 19h81q9 0 15 -6t6 -14q0 -7 -4 -16l-283 -655q-8 -19 -28 -19h-80q-8 0 -14.5 6z" />
    <glyph glyph-name="z" unicode="z" horiz-adv-x="532" 
d="M47 7q-7 7 -7 17v58q0 9 3.5 16t10.5 17l255 299h-237q-10 0 -17 7.5t-7 17.5v57q0 10 7 17t17 7h381q10 0 17 -7t7 -17v-62q0 -8 -4.5 -16t-9.5 -15l-250 -297h260q10 0 17 -7t7 -18v-57q0 -10 -6.5 -17t-17.5 -7h-409q-10 0 -17 7z" />
    <glyph glyph-name="braceleft" unicode="{" horiz-adv-x="398" 
d="M169 -85q-59 73 -59 216q0 46 -13 74.5t-42 45.5l-10 5q-14 7 -20 16t-6 23v28q0 14 6 23t20 16l11 6q29 17 41.5 45t12.5 74q0 143 59 215.5t176 73.5h6q9 0 15.5 -6t6.5 -16v-65q0 -9 -6 -15.5t-15 -6.5h-4q-45 -3 -70 -23t-35 -61.5t-10 -112.5q0 -60 -19.5 -101.5
t-54.5 -59.5q35 -17 54.5 -59.5t19.5 -101.5q0 -71 10 -112.5t35 -62t69 -22.5h5q9 -1 15 -7t6 -15v-66q0 -9 -6.5 -15.5t-15.5 -6.5h-5q-118 1 -177 74z" />
    <glyph glyph-name="bar" unicode="|" horiz-adv-x="249" 
d="M75 -201.5q-7 6.5 -7 17.5v1056q0 11 7 17.5t17 6.5h66q10 0 17 -7t7 -17v-1056q0 -10 -7 -17t-17 -7h-66q-10 0 -17 6.5z" />
    <glyph glyph-name="braceright" unicode="}" horiz-adv-x="398" 
d="M229 702q59 -73 59 -216q0 -46 13 -74.5t42 -44.5l10 -5q14 -8 20 -17t6 -22v-29q0 -13 -6 -22t-20 -17l-11 -5q-28 -17 -41 -45.5t-13 -74.5q0 -286 -235 -289h-6q-9 0 -15.5 6.5t-6.5 15.5v66q0 9 6 15t15 7h4q45 2 70 22t35 61.5t10 112.5q0 61 19.5 102t54.5 59
q-35 18 -54.5 60.5t-19.5 101.5q0 71 -10 112.5t-35 61.5t-69 22l-5 1q-8 0 -14.5 6.5t-6.5 15.5v65q0 10 6.5 16t15.5 6h5q118 -1 177 -74z" />
    <glyph glyph-name="asciitilde" unicode="~" horiz-adv-x="557" 
d="M66 252v58q0 25 32.5 45.5t77.5 20.5q31 0 55.5 -5t54.5 -15q29 -9 50 -13.5t47 -4.5q24 0 39 7.5t35 21.5q8 5 16 6q19 0 19 -25v-59q0 -25 -32.5 -45t-77.5 -20q-29 0 -51.5 4.5t-55.5 14.5q-28 9 -50.5 14t-49.5 5q-24 0 -39 -7.5t-35 -21.5q-10 -6 -16 -6
q-19 0 -19 25z" />
    <glyph glyph-name="uni00A0" unicode="&#xa0;" horiz-adv-x="228" 
 />
    <glyph glyph-name="exclamdown" unicode="&#xa1;" horiz-adv-x="262" 
d="M196.5 511.5q6.5 -6.5 6.5 -17.5v-95q0 -10 -6.5 -17t-17.5 -7h-94q-11 0 -18 7t-7 17v95q0 10 7 17t18 7h94q11 0 17.5 -6.5zM190.5 316.5q6.5 -6.5 6.5 -17.5v-457q0 -11 -6.5 -17.5t-17.5 -6.5h-83q-10 0 -17 7t-7 17v457q0 10 7 17t17 7h83q11 0 17.5 -6.5z" />
    <glyph glyph-name="cent" unicode="&#xa2;" horiz-adv-x="579" 
d="M236 -93.5q-7 6.5 -7 17.5v73q-82 14 -130 72.5t-51 150.5l-1 40l1 40q3 92 51 150.5t130 72.5v63q0 11 7 17.5t17 6.5h71q11 0 17.5 -6.5t6.5 -17.5v-62q64 -10 106.5 -41t62 -67t19.5 -62q0 -9 -7.5 -15.5t-16.5 -6.5h-89q-11 0 -16 4.5t-10 16.5q-15 38 -41.5 55
t-64.5 17q-47 0 -75.5 -32.5t-30.5 -97.5l-1 -37l1 -33q3 -66 31 -98t75 -32q39 0 65 17t41 55q4 11 9.5 16t16.5 5h89q9 0 16.5 -6.5t7.5 -15.5q0 -26 -19.5 -62t-61.5 -67t-107 -41v-72q0 -11 -6.5 -17.5t-17.5 -6.5h-71q-10 0 -17 6.5z" />
    <glyph glyph-name="sterling" unicode="&#xa3;" horiz-adv-x="700" 
d="M404 6q-32 13 -73 37q-34 20 -54 28.5t-44 8.5q-32 0 -48 -16t-24 -48q-2 -7 -6 -11.5t-13 -4.5h-77q-8 0 -13.5 5.5t-5.5 13.5q2 64 32.5 106.5t80.5 58.5q-1 28 -6.5 62t-6.5 42h-76q-10 0 -17 7t-7 17v56q0 11 7 17.5t17 6.5h56q-3 27 -3 60q0 120 66.5 189.5
t191.5 69.5q80 0 139.5 -29t91.5 -81t34 -119q0 -9 -6 -15t-15 -6h-96q-22 0 -30 24q-23 110 -118 110q-56 0 -84 -38.5t-28 -105.5q0 -41 2 -59h171q10 0 17 -7t7 -17v-56q0 -10 -7 -17t-17 -7h-163q8 -70 9 -106q25 -5 43.5 -14t44.5 -26t44.5 -25.5t41.5 -8.5
q35 0 53.5 18t28.5 52q2 6 6.5 10.5t11.5 4.5h70q9 0 14 -5.5t5 -13.5q-1 -57 -25 -97.5t-62.5 -62t-84.5 -21.5q-43 0 -75 13z" />
    <glyph glyph-name="currency" unicode="&#xa4;" horiz-adv-x="601" 
d="M65 102q-7 7 -7 17q0 11 7 17l44 44q-35 54 -35 120q0 64 35 120l-44 44q-7 7 -7 17t7 17l38 38q7 7 17 7t17 -7l44 -45q56 36 120 36q63 0 119 -36l45 45q7 7 17 7t16 -7l39 -38q7 -7 7 -17t-7 -17l-45 -44q35 -56 35 -120q0 -66 -35 -120l45 -44q7 -6 7 -17
q0 -10 -7 -17l-39 -38q-7 -7 -16 -7q-8 0 -17 7l-45 45q-53 -36 -119 -36q-67 0 -120 36l-44 -45q-9 -7 -17 -7t-17 7zM389.5 211.5q36.5 36.5 36.5 88.5t-36.5 88.5t-88.5 36.5t-88.5 -36.5t-36.5 -88.5t36.5 -88.5t88.5 -36.5t88.5 36.5z" />
    <glyph glyph-name="yen" unicode="&#xa5;" horiz-adv-x="654" 
d="M621 668l-185 -336h97q11 0 18 -7t7 -17v-58q0 -10 -7.5 -17t-17.5 -7h-135v-35h135q11 0 18 -7t7 -17v-57q0 -10 -7 -17.5t-18 -7.5h-135v-61q0 -11 -7 -17.5t-18 -6.5h-92q-11 0 -18 7t-7 17v61h-135q-10 0 -17 7.5t-7 17.5v57q0 10 7 17t17 7h135v35h-135q-10 0 -17 7
t-7 17v58q0 10 7 17t17 7h97l-184 336q-3 5 -3 11q0 9 6 15t14 6h92q19 0 31 -19l153 -273l154 273q12 19 31 19h91q8 0 14.5 -6t6.5 -15q0 -2 -3 -11z" />
    <glyph glyph-name="brokenbar" unicode="&#xa6;" horiz-adv-x="255" 
d="M77 482q-7 7 -7 17v306q0 10 7 17t17 7h66q11 0 17.5 -6.5t6.5 -17.5v-306q0 -10 -6.5 -17t-17.5 -7h-66q-10 0 -17 7zM77 7q-7 7 -7 17v306q0 10 7 17t17 7h66q11 0 17.5 -6.5t6.5 -17.5v-306q0 -10 -6.5 -17t-17.5 -7h-66q-10 0 -17 7z" />
    <glyph glyph-name="section" unicode="&#xa7;" horiz-adv-x="588" 
d="M168 -117.5q-50 22.5 -76 56t-28 65.5v2q0 9 6.5 14t15.5 5h79q9 0 15 -4t11 -13q10 -23 30.5 -37t63.5 -14q40 0 61 20t21 52q0 23 -9.5 37t-36.5 25.5t-80 25.5q-75 21 -119 47t-64 62.5t-20 88.5q0 79 74 134q-22 30 -22 81q0 48 24 89t72 66t115 25q69 0 119 -22.5
t75.5 -55.5t27.5 -65v-2q0 -9 -6 -14t-15 -5h-80q-9 0 -15 4t-11 14q-11 22 -31 35.5t-63 13.5q-40 0 -60.5 -20t-20.5 -52q0 -23 9.5 -37t36.5 -25.5t80 -25.5q75 -21 119 -47t64 -62.5t20 -88.5q0 -78 -74 -134q22 -30 22 -81q0 -48 -24.5 -89t-72 -66t-114.5 -25
q-69 0 -119 22.5zM416 213q12 15 12 37q0 35 -25 56.5t-96 42.5q-62 19 -98 34q-49 -21 -49 -63q0 -23 9.5 -39.5t36 -31t76.5 -29.5q42 -12 97 -33q25 11 37 26z" />
    <glyph glyph-name="dieresis" unicode="&#xa8;" horiz-adv-x="431" 
d="M68 620q-6 6 -6 16v74q0 10 6 16.5t16 6.5h74q10 0 16.5 -6.5t6.5 -16.5v-74q0 -10 -6.5 -16t-16.5 -6h-74q-10 0 -16 6zM257 620q-6 6 -6 16v74q0 10 6 16.5t16 6.5h74q10 0 16.5 -6.5t6.5 -16.5v-74q0 -10 -6.5 -16t-16.5 -6h-74q-10 0 -16 6z" />
    <glyph glyph-name="copyright" unicode="&#xa9;" horiz-adv-x="817" 
d="M227.5 38.5q-82.5 48.5 -131 131t-48.5 180.5t48.5 180.5t131 131t180.5 48.5t180.5 -48.5t131 -131t48.5 -180.5t-48.5 -180.5t-131 -131t-180.5 -48.5t-180.5 48.5zM551 101q65 39 103 105t38 144t-38 144t-103 105t-143 39q-77 0 -142 -39t-103 -105t-38 -144t38 -144
t103 -105t142 -39q78 0 143 39zM288.5 202q-44.5 44 -47.5 113l-1 36l1 36q3 69 47.5 113t119.5 44q54 0 92 -17.5t56.5 -44.5t19.5 -54v-2q0 -9 -6.5 -14.5t-15.5 -5.5h-50q-10 0 -15 5.5t-9 14.5q-8 21 -25 30.5t-47 9.5q-69 0 -74 -81l-1 -34l1 -34q5 -81 74 -81
q30 0 47 9.5t25 30.5q4 10 9 15t15 5h50q10 0 16.5 -6t5.5 -16q-1 -27 -19.5 -54t-56.5 -44.5t-92 -17.5q-75 0 -119.5 44z" />
    <glyph glyph-name="ordfeminine" unicode="&#xaa;" horiz-adv-x="360" 
d="M69.5 451q-26.5 22 -26.5 56q0 38 30 61.5t83 31.5l59 9q0 14 -6.5 23t-29.5 9q-19 0 -34 -11q-3 -1 -8.5 -4t-12.5 -3h-46q-7 0 -12 3.5t-5 9.5q0 12 14.5 28.5t42 28.5t64.5 12q57 0 88.5 -29t31.5 -80v-143q0 -8 -5.5 -13.5t-13.5 -5.5h-47q-8 0 -13.5 5.5t-5.5 13.5
v10q-9 -15 -31 -24.5t-47 -9.5q-43 0 -69.5 22zM201.5 508.5q13.5 16.5 13.5 44.5l-39 -7q-28 -5 -38.5 -13.5t-10.5 -20.5q0 -9 9 -14.5t23 -5.5q29 0 42.5 16.5z" />
    <glyph glyph-name="guillemotleft" unicode="&#xab;" horiz-adv-x="615" 
d="M252 84l-200 195q-14 13 -16 32v36q2 19 16 33l200 194q11 9 20 9t15 -6t6 -15v-69q0 -14 -4 -22t-14 -18l-128 -124l128 -124q10 -10 14 -18t4 -22v-69q0 -9 -6 -15t-15 -6t-20 9zM518 84l-200 195q-14 13 -16 32v36q2 19 16 33l200 194q11 9 20 9t15 -6t6 -15v-69
q0 -14 -4 -22t-14 -18l-128 -124l128 -124q10 -10 14 -18t4 -22v-69q0 -9 -6 -15t-15 -6t-20 9z" />
    <glyph glyph-name="logicalnot" unicode="&#xac;" horiz-adv-x="574" 
d="M408 128q-7 7 -7 17v100h-315q-10 0 -17 7t-7 17v57q0 11 7 17.5t17 6.5h397q11 0 18 -7t7 -17v-181q0 -10 -7.5 -17t-17.5 -7h-58q-10 0 -17 7z" />
    <glyph glyph-name="uni00AD" unicode="&#xad;" horiz-adv-x="250" 
 />
    <glyph glyph-name="registered" unicode="&#xae;" horiz-adv-x="817" 
d="M227.5 38.5q-82.5 48.5 -131 131t-48.5 180.5t48.5 180.5t131 131t180.5 48.5t180.5 -48.5t131 -131t48.5 -180.5t-48.5 -180.5t-131 -131t-180.5 -48.5t-180.5 48.5zM551 101q65 39 103 105t38 144t-38 144t-103 105t-143 39q-77 0 -142 -39t-103 -105t-38 -144t38 -144
t103 -105t142 -39q78 0 143 39zM272 174q-6 6 -6 16v322q0 10 6 16t16 6h135q63 0 104.5 -29t41.5 -91q0 -38 -17.5 -64t-47.5 -39l59 -107q4 -6 4 -14q0 -9 -5.5 -15.5t-16.5 -6.5h-44q-18 0 -29 19l-55 107h-61v-104q0 -10 -6 -16t-16 -6h-46q-10 0 -16 6zM422 369
q55 0 55 45q0 20 -13 33t-42 13h-66v-91h66z" />
    <glyph glyph-name="macron" unicode="&#xaf;" horiz-adv-x="421" 
d="M68 617q-6 6 -6 16v52q0 10 6 16t16 6h252q10 0 16.5 -6t6.5 -16v-52q0 -10 -6.5 -16t-16.5 -6h-252q-10 0 -16 6z" />
    <glyph glyph-name="degree" unicode="&#xb0;" horiz-adv-x="400" 
d="M119 418.5q-37 20.5 -58.5 56t-21.5 79.5t21.5 79.5t58.5 56t81 20.5t81 -20.5t58.5 -56t21.5 -79.5t-21.5 -79.5t-58.5 -56t-81 -20.5t-81 20.5zM255 499q21 21 21 55t-21 55t-55 21t-55 -21t-21 -55t21 -55t55 -21t55 21z" />
    <glyph glyph-name="plusminus" unicode="&#xb1;" horiz-adv-x="564" 
d="M235 197q-7 7 -7 17v151h-147q-11 0 -18 7t-7 17v54q0 10 7 17t18 7h147v146q0 10 7 17t17 7h61q11 0 17.5 -6.5t6.5 -17.5v-146h147q11 0 17.5 -6.5t6.5 -17.5v-54q0 -10 -6.5 -17t-17.5 -7h-147v-151q0 -10 -6.5 -17t-17.5 -7h-61q-10 0 -17 7zM74 7q-7 7 -7 17v54
q0 11 7 17.5t17 6.5h383q11 0 17.5 -6.5t6.5 -17.5v-54q0 -10 -6.5 -17t-17.5 -7h-383q-10 0 -17 7z" />
    <glyph glyph-name="uni00B2" unicode="&#xb2;" horiz-adv-x="349" 
d="M34 356q-6 6 -6 16v28q0 8 5 15.5t19 18.5l50 36q70 51 93 73t23 48q0 18 -12.5 29.5t-33.5 11.5q-24 0 -33 -9t-17 -24q-6 -11 -11 -14.5t-13 -3.5h-44q-18 0 -18 17q0 29 18.5 53.5t50 39t67.5 14.5q61 0 97.5 -31.5t36.5 -79.5q0 -47 -30.5 -81t-108.5 -87h132
q10 0 16 -6t6 -16v-32q0 -10 -6 -16t-16 -6h-249q-10 0 -16 6z" />
    <glyph glyph-name="uni00B3" unicode="&#xb3;" horiz-adv-x="348" 
d="M63 371.5q-36 26.5 -39 60.5v2q0 7 6 12t11 5h33q14 0 30 -8q5 -3 12 -9.5t18.5 -10.5t31.5 -4q26 0 42.5 10.5t16.5 27.5q0 20 -14 28t-41 8h-44q-9 0 -15 6t-6 16v22q0 11 11 22l69 63h-122q-10 0 -16 6t-6 16v34q0 10 6 16t16 6h215q10 0 16 -6t6 -16v-30
q0 -11 -3 -17.5t-12 -14.5l-67 -56q48 -6 73.5 -33t25.5 -71q0 -51 -40 -81t-108 -30q-70 0 -106 26.5z" />
    <glyph glyph-name="acute" unicode="&#xb4;" horiz-adv-x="369" 
d="M62 611q0 8 5 13l82 99q9 11 16.5 15t20.5 4h101q9 0 14 -5.5t5 -14.5q0 -7 -5 -12l-125 -102q-9 -7 -16.5 -10t-18.5 -3h-63q-16 0 -16 16z" />
    <glyph glyph-name="uni00B5" unicode="&#xb5;" horiz-adv-x="633" 
d="M73.5 -193q-7.5 7 -7.5 17v672q0 10 7 17t18 7h91q11 0 17.5 -6.5t6.5 -17.5v-275q0 -55 33.5 -89t78.5 -34t78.5 34t33.5 89v275q0 11 7 17.5t17 6.5h89q11 0 17.5 -6.5t6.5 -17.5v-472q0 -10 -6.5 -17t-17.5 -7h-83q-10 0 -17 7t-7 17v41q-22 -30 -52.5 -47t-74.5 -17
q-32 0 -56.5 10t-46.5 29v-216q0 -10 -7 -17t-17 -7h-91q-10 0 -17.5 7z" />
    <glyph glyph-name="paragraph" unicode="&#xb6;" horiz-adv-x="582" 
d="M221 -93.5q-7 6.5 -7 17.5v405q-51 0 -93.5 25t-67.5 67.5t-25 93.5q0 50 25 92.5t67.5 67.5t93.5 25h272q10 0 17 -7t7 -17v-752q0 -10 -7 -17t-17 -7h-61q-10 0 -17 6.5t-7 17.5v680h-79v-680q0 -11 -6.5 -17.5t-17.5 -6.5h-60q-10 0 -17 6.5z" />
    <glyph glyph-name="periodcentered" unicode="&#xb7;" horiz-adv-x="330" 
d="M82.5 238.5q-34.5 34.5 -34.5 82.5t34.5 82.5t82.5 34.5t82.5 -34.5t34.5 -82.5t-34.5 -82.5t-82.5 -34.5t-82.5 34.5z" />
    <glyph glyph-name="cedilla" unicode="&#xb8;" horiz-adv-x="304" 
d="M88 -206q-26 14 -26 28q0 4 5 9l16 15q5 5 10 5t20 -8.5t33 -8.5q16 0 26.5 9.5t10.5 24.5q0 14 -10.5 23t-26.5 9q-10 0 -24.5 -4.5t-19.5 -4.5q-7 0 -13 6l-18 19q-4 5 -4 11q0 8 6 20l35 80h62l-40 -80q11 7 34 7q35 0 57 -23.5t22 -61.5t-25.5 -63.5t-69.5 -25.5
q-34 0 -60 14z" />
    <glyph glyph-name="uni00B9" unicode="&#xb9;" horiz-adv-x="259" 
d="M130 356q-6 6 -6 16v222l-55 -41q-5 -4 -13 -4q-10 0 -18 9l-20 26q-5 7 -5 14q0 10 9 17l103 78q10 7 23 7h45q10 0 16 -6t6 -16v-306q0 -10 -6 -16t-16 -6h-47q-10 0 -16 6z" />
    <glyph glyph-name="ordmasculine" unicode="&#xba;" horiz-adv-x="356" 
d="M83 457q-34 28 -37 83l-1 27l1 27q3 54 39 82.5t94 28.5t93.5 -28.5t38.5 -82.5q1 -5 1 -27t-1 -27q-3 -54 -37 -82.5t-95 -28.5q-62 0 -96 28zM210.5 508.5q10.5 11.5 11.5 36.5q2 10 2 22t-2 22q-2 48 -43 48q-42 0 -44 -48l-1 -22l1 -22q1 -25 11.5 -36.5t32.5 -11.5
q21 0 31.5 11.5z" />
    <glyph glyph-name="guillemotright" unicode="&#xbb;" horiz-adv-x="615" 
d="M62 81q-6 6 -6 15v69q0 14 4 22t14 18l128 124l-128 124q-10 10 -14 18t-4 22v69q0 9 6 15t15 6t20 -9l200 -194q14 -14 16 -33v-36q-2 -19 -16 -32l-200 -195q-10 -9 -20 -9q-9 0 -15 6zM328 81q-6 6 -6 15v69q0 14 4 22t14 18l128 124l-128 124q-10 10 -14 18t-4 22v69
q0 9 6 15t15 6q10 0 20 -9l200 -194q14 -14 16 -33v-36q-2 -19 -16 -32l-200 -195q-10 -9 -20 -9q-9 0 -15 6z" />
    <glyph glyph-name="onequarter" unicode="&#xbc;" horiz-adv-x="746" 
d="M130 356q-6 6 -6 16v222l-55 -41q-5 -4 -13 -4q-10 0 -18 9l-20 26q-5 7 -5 14q0 10 9 17l103 78q10 7 23 7h45q10 0 16 -6t6 -16v-306q0 -10 -6 -16t-16 -6h-47q-10 0 -16 6zM47.5 5.5q-5.5 5.5 -5.5 14.5q0 6 4 11l493 650q8 10 15 14.5t19 4.5h41q10 0 16 -5.5
t6 -14.5q0 -6 -4 -11l-494 -650q-8 -10 -15 -14.5t-19 -4.5h-41q-10 0 -15.5 5.5zM563 5q-6 6 -6 16v41h-148q-10 0 -16 6t-6 16v36q0 14 12 30l133 181q13 18 30 18h61q10 0 16 -6t6 -16v-186h35q10 0 16 -6t6 -16v-35q0 -10 -6 -16t-16 -6h-35v-41q0 -10 -6 -16t-16 -6
h-44q-10 0 -16 6zM482 139h77v109z" />
    <glyph glyph-name="onehalf" unicode="&#xbd;" horiz-adv-x="751" 
d="M130 356q-6 6 -6 16v222l-55 -41q-5 -4 -13 -4q-10 0 -18 9l-20 26q-5 7 -5 14q0 10 9 17l103 78q10 7 23 7h45q10 0 16 -6t6 -16v-306q0 -10 -6 -16t-16 -6h-47q-10 0 -16 6zM47.5 5.5q-5.5 5.5 -5.5 14.5q0 6 4 11l493 650q8 10 15 14.5t19 4.5h41q10 0 16 -5.5
t6 -14.5q0 -6 -4 -11l-494 -650q-8 -10 -15 -14.5t-19 -4.5h-41q-10 0 -15.5 5.5zM416 6q-6 6 -6 16v28q0 8 5 15.5t19 18.5l50 36q70 51 93 73t23 48q0 18 -12.5 29.5t-33.5 11.5q-24 0 -33 -9t-17 -24q-6 -11 -11 -14.5t-13 -3.5h-44q-18 0 -18 17q0 29 18.5 53.5t50 39
t67.5 14.5q61 0 97.5 -31.5t36.5 -79.5q0 -47 -30.5 -81t-108.5 -87h132q10 0 16 -6t6 -16v-32q0 -10 -6 -16t-16 -6h-249q-10 0 -16 6z" />
    <glyph glyph-name="threequarters" unicode="&#xbe;" horiz-adv-x="819" 
d="M63 371.5q-36 26.5 -39 60.5v2q0 7 6 12t11 5h33q14 0 30 -8q5 -3 12 -9.5t18.5 -10.5t31.5 -4q26 0 42.5 10.5t16.5 27.5q0 20 -14 28t-41 8h-44q-9 0 -15 6t-6 16v22q0 11 11 22l69 63h-122q-10 0 -16 6t-6 16v34q0 10 6 16t16 6h215q10 0 16 -6t6 -16v-30
q0 -11 -3 -17.5t-12 -14.5l-67 -56q48 -6 73.5 -33t25.5 -71q0 -51 -40 -81t-108 -30q-70 0 -106 26.5zM136.5 5.5q-5.5 5.5 -5.5 14.5q0 6 4 11l493 650q8 10 15 14.5t19 4.5h41q10 0 16 -5.5t6 -14.5q0 -6 -4 -11l-494 -650q-8 -10 -15 -14.5t-19 -4.5h-41
q-10 0 -15.5 5.5zM655 4q-6 6 -6 16v41h-148q-10 0 -16 6t-6 16v36q0 14 12 30l133 181q13 18 30 18h61q10 0 16 -6t6 -16v-186h35q10 0 16 -6t6 -16v-35q0 -10 -6 -16t-16 -6h-35v-41q0 -10 -6 -16t-16 -6h-44q-10 0 -16 6zM574 138h77v109z" />
    <glyph glyph-name="questiondown" unicode="&#xbf;" horiz-adv-x="560" 
d="M345 512q7 -7 7 -17v-89q0 -10 -7 -17t-17 -7h-99q-10 0 -17.5 7t-7.5 17v89q0 10 7 17t18 7h99q10 0 17 -7zM340 324q6 -6 6 -14q0 -21 -1 -32q-5 -47 -30 -83t-69 -80q-34 -34 -50.5 -56t-18.5 -46q-4 -41 26.5 -65t73.5 -24q97 0 117 97q7 23 29 23h87q10 0 16.5 -7
t6.5 -18q-2 -55 -33.5 -103t-90.5 -77.5t-139 -29.5q-83 0 -136.5 26.5t-78 67.5t-24.5 85q0 50 22.5 87t66.5 85q32 34 49.5 58.5t23.5 52.5q4 25 5 34q5 13 11 19t17 6h99q9 0 15 -6z" />
    <glyph glyph-name="Agrave" unicode="&#xc0;" horiz-adv-x="694" 
d="M20 6q-6 6 -6 15l2 9l240 645q10 25 36 25h110q26 0 36 -25l240 -645l2 -9q0 -9 -6.5 -15t-14.5 -6h-89q-21 0 -29 19l-46 121h-296l-46 -121q-8 -19 -29 -19h-89q-9 0 -15 6zM234 256h226l-113 308zM308.5 753q-7.5 3 -16.5 10l-125 102q-5 5 -5 12q0 9 5 14.5t14 5.5
h109q13 0 20 -4t17 -15l81 -99q5 -5 5 -13q0 -16 -16 -16h-70q-11 0 -18.5 3z" />
    <glyph glyph-name="Aacute" unicode="&#xc1;" horiz-adv-x="694" 
d="M20 6q-6 6 -6 15l2 9l240 645q10 25 36 25h110q26 0 36 -25l240 -645l2 -9q0 -9 -6.5 -15t-14.5 -6h-89q-21 0 -29 19l-46 121h-296l-46 -121q-8 -19 -29 -19h-89q-9 0 -15 6zM234 256h226l-113 308zM285 766q0 8 5 13l82 99q9 11 16.5 15t20.5 4h108q9 0 14 -5.5
t5 -14.5q0 -7 -5 -12l-125 -102q-9 -7 -16.5 -10t-18.5 -3h-70q-16 0 -16 16z" />
    <glyph glyph-name="Acircumflex" unicode="&#xc2;" horiz-adv-x="694" 
d="M20 6q-6 6 -6 15l2 9l240 645q10 25 36 25h110q26 0 36 -25l240 -645l2 -9q0 -9 -6.5 -15t-14.5 -6h-89q-21 0 -29 19l-46 121h-296l-46 -121q-8 -19 -29 -19h-89q-9 0 -15 6zM234 256h226l-113 308zM176 763q0 8 9 17l98 101q9 10 16.5 13t17.5 3h60q10 0 17 -3t17 -13
l97 -101q9 -9 9 -17q0 -13 -14 -13h-40q-18 0 -31 7l-85 53l-85 -53q-13 -7 -31 -7h-40q-15 0 -15 13z" />
    <glyph glyph-name="Atilde" unicode="&#xc3;" horiz-adv-x="694" 
d="M20 6q-6 6 -6 15l2 9l240 645q10 25 36 25h110q26 0 36 -25l240 -645l2 -9q0 -9 -6.5 -15t-14.5 -6h-89q-21 0 -29 19l-46 121h-296l-46 -121q-8 -19 -29 -19h-89q-9 0 -15 6zM234 256h226l-113 308zM370.5 750q-13.5 5 -32.5 15q-14 8 -22.5 11.5t-18.5 3.5
q-9 0 -14 -3.5t-11 -12.5q-8 -14 -19 -14h-47q-7 0 -12 5t-5 12q0 23 11 49t33.5 44t55.5 18q19 0 32.5 -5t32.5 -15q14 -8 22.5 -11.5t18.5 -3.5q9 0 14 4t11 12q5 8 9 11t11 3h46q8 0 13 -5t5 -12q0 -23 -11.5 -49t-34.5 -44t-55 -18q-19 0 -32.5 5z" />
    <glyph glyph-name="Adieresis" unicode="&#xc4;" horiz-adv-x="694" 
d="M20 6q-6 6 -6 15l2 9l240 645q10 25 36 25h110q26 0 36 -25l240 -645l2 -9q0 -9 -6.5 -15t-14.5 -6h-89q-21 0 -29 19l-46 121h-296l-46 -121q-8 -19 -29 -19h-89q-9 0 -15 6zM234 256h226l-113 308zM184 756q-6 6 -6 16v74q0 10 6 16.5t16 6.5h74q10 0 16.5 -6.5
t6.5 -16.5v-74q0 -10 -6.5 -16t-16.5 -6h-74q-10 0 -16 6zM403 756q-6 6 -6 16v74q0 10 6 16.5t16 6.5h74q10 0 16.5 -6.5t6.5 -16.5v-74q0 -10 -6.5 -16t-16.5 -6h-74q-10 0 -16 6z" />
    <glyph glyph-name="Aring" unicode="&#xc5;" horiz-adv-x="694" 
d="M20 6q-6 6 -6 15l2 9l240 645q10 25 36 25h110q26 0 36 -25l240 -645l2 -9q0 -9 -6.5 -15t-14.5 -6h-89q-21 0 -29 19l-46 121h-296l-46 -121q-8 -19 -29 -19h-89q-9 0 -15 6zM234 256h226l-113 308zM284.5 763.5q-25.5 23.5 -25.5 59.5t25.5 60t62.5 24t62.5 -24
t25.5 -60t-25.5 -59.5t-62.5 -23.5t-62.5 23.5zM368.5 801.5q8.5 8.5 8.5 21.5t-8.5 21.5t-21.5 8.5t-21.5 -8.5t-8.5 -21.5t8.5 -21.5t21.5 -8.5t21.5 8.5z" />
    <glyph glyph-name="AE" unicode="&#xc6;" horiz-adv-x="955" 
d="M11 6q-6 6 -6 15q0 3 2 11q30 86 88 211.5t219 431.5q10 25 34 25h527q11 0 18 -7t7 -18v-67q0 -11 -7 -17.5t-18 -6.5h-316v-175h294q11 0 18 -7t7 -18v-63q0 -11 -7 -17.5t-18 -6.5h-294v-181h324q11 0 18 -6.5t7 -17.5v-68q0 -11 -7 -17.5t-18 -6.5h-437q-10 0 -17 7
t-7 17v116h-214q-57 -103 -63 -121q-9 -19 -29 -19h-91q-8 0 -14 6zM249 256h173v324h-13z" />
    <glyph glyph-name="Ccedilla" unicode="&#xc7;" horiz-adv-x="685" 
d="M286 -206q-26 14 -26 28q0 5 4 9l17 15q5 5 10 5q4 0 19 -8.5t34 -8.5q16 0 26.5 9.5t10.5 24.5q0 14 -10.5 23t-26.5 9q-10 0 -24.5 -4.5t-19.5 -4.5q-8 0 -14 6l-18 19q-4 5 -4 11q0 8 6 20l20 47q-111 14 -171 83t-65 184q-1 27 -1 88q0 62 1 90q5 128 81 199.5
t213 71.5q89 0 155 -30.5t102.5 -83.5t38.5 -119v-2q0 -8 -6.5 -13.5t-14.5 -5.5h-97q-12 0 -18 5.5t-10 19.5q-15 62 -52 87.5t-98 25.5q-143 0 -149 -160q-1 -27 -1 -83t1 -85q6 -160 149 -160q60 0 97.5 25.5t52.5 87.5q4 14 10 19.5t18 5.5h97q9 0 15.5 -6t5.5 -15
q-2 -66 -38.5 -119t-102.5 -83.5t-155 -30.5l-21 -43q11 7 35 7q35 0 56.5 -23.5t21.5 -61.5t-25 -63.5t-69 -25.5q-34 0 -60 14z" />
    <glyph glyph-name="Egrave" unicode="&#xc8;" horiz-adv-x="623" 
d="M85 7q-7 7 -7 17v651q0 11 6.5 18t17.5 7h441q11 0 18 -7t7 -18v-67q0 -11 -7 -17.5t-18 -6.5h-328v-175h306q11 0 18 -7t7 -18v-63q0 -11 -7 -17.5t-18 -6.5h-306v-181h336q11 0 18 -6.5t7 -17.5v-68q0 -11 -7 -17.5t-18 -6.5h-449q-10 0 -17 7zM273.5 753
q-7.5 3 -16.5 10l-125 102q-5 5 -5 12q0 9 5 14.5t14 5.5h109q13 0 20 -4t17 -15l81 -99q5 -5 5 -13q0 -16 -16 -16h-70q-11 0 -18.5 3z" />
    <glyph glyph-name="Eacute" unicode="&#xc9;" horiz-adv-x="623" 
d="M85 7q-7 7 -7 17v651q0 11 6.5 18t17.5 7h441q11 0 18 -7t7 -18v-67q0 -11 -7 -17.5t-18 -6.5h-328v-175h306q11 0 18 -7t7 -18v-63q0 -11 -7 -17.5t-18 -6.5h-306v-181h336q11 0 18 -6.5t7 -17.5v-68q0 -11 -7 -17.5t-18 -6.5h-449q-10 0 -17 7zM250 766q0 8 5 13l82 99
q9 11 16.5 15t20.5 4h108q9 0 14 -5.5t5 -14.5q0 -7 -5 -12l-125 -102q-9 -7 -16.5 -10t-18.5 -3h-70q-16 0 -16 16z" />
    <glyph glyph-name="Ecircumflex" unicode="&#xca;" horiz-adv-x="623" 
d="M85 7q-7 7 -7 17v651q0 11 6.5 18t17.5 7h441q11 0 18 -7t7 -18v-67q0 -11 -7 -17.5t-18 -6.5h-328v-175h306q11 0 18 -7t7 -18v-63q0 -11 -7 -17.5t-18 -6.5h-306v-181h336q11 0 18 -6.5t7 -17.5v-68q0 -11 -7 -17.5t-18 -6.5h-449q-10 0 -17 7zM141 763q0 8 9 17
l98 101q9 10 16.5 13t17.5 3h60q10 0 17 -3t17 -13l97 -101q9 -9 9 -17q0 -13 -14 -13h-40q-18 0 -31 7l-85 53l-85 -53q-13 -7 -31 -7h-40q-15 0 -15 13z" />
    <glyph glyph-name="Edieresis" unicode="&#xcb;" horiz-adv-x="623" 
d="M85 7q-7 7 -7 17v651q0 11 6.5 18t17.5 7h441q11 0 18 -7t7 -18v-67q0 -11 -7 -17.5t-18 -6.5h-328v-175h306q11 0 18 -7t7 -18v-63q0 -11 -7 -17.5t-18 -6.5h-306v-181h336q11 0 18 -6.5t7 -17.5v-68q0 -11 -7 -17.5t-18 -6.5h-449q-10 0 -17 7zM149 756q-6 6 -6 16v74
q0 10 6 16.5t16 6.5h74q10 0 16.5 -6.5t6.5 -16.5v-74q0 -10 -6.5 -16t-16.5 -6h-74q-10 0 -16 6zM368 756q-6 6 -6 16v74q0 10 6 16.5t16 6.5h74q10 0 16.5 -6.5t6.5 -16.5v-74q0 -10 -6.5 -16t-16.5 -6h-74q-10 0 -16 6z" />
    <glyph glyph-name="Igrave" unicode="&#xcc;" horiz-adv-x="300" 
d="M85 7q-7 7 -7 17v652q0 11 7 17.5t17 6.5h96q11 0 17.5 -6.5t6.5 -17.5v-652q0 -10 -6.5 -17t-17.5 -7h-96q-10 0 -17 7zM111.5 753q-7.5 3 -16.5 10l-125 102q-5 5 -5 12q0 9 5 14.5t14 5.5h109q13 0 20 -4t17 -15l81 -99q5 -5 5 -13q0 -16 -16 -16h-70q-11 0 -18.5 3z
" />
    <glyph glyph-name="Iacute" unicode="&#xcd;" horiz-adv-x="300" 
d="M85 7q-7 7 -7 17v652q0 11 7 17.5t17 6.5h96q11 0 17.5 -6.5t6.5 -17.5v-652q0 -10 -6.5 -17t-17.5 -7h-96q-10 0 -17 7zM88 766q0 8 5 13l82 99q9 11 16.5 15t20.5 4h108q9 0 14 -5.5t5 -14.5q0 -7 -5 -12l-125 -102q-9 -7 -16.5 -10t-18.5 -3h-70q-16 0 -16 16z" />
    <glyph glyph-name="Icircumflex" unicode="&#xce;" horiz-adv-x="300" 
d="M85 7q-7 7 -7 17v652q0 11 7 17.5t17 6.5h96q11 0 17.5 -6.5t6.5 -17.5v-652q0 -10 -6.5 -17t-17.5 -7h-96q-10 0 -17 7zM-21 763q0 8 9 17l98 101q9 10 16.5 13t17.5 3h60q10 0 17 -3t17 -13l97 -101q9 -9 9 -17q0 -13 -14 -13h-40q-18 0 -31 7l-85 53l-85 -53
q-13 -7 -31 -7h-40q-15 0 -15 13z" />
    <glyph glyph-name="Idieresis" unicode="&#xcf;" horiz-adv-x="300" 
d="M85 7q-7 7 -7 17v652q0 11 7 17.5t17 6.5h96q11 0 17.5 -6.5t6.5 -17.5v-652q0 -10 -6.5 -17t-17.5 -7h-96q-10 0 -17 7zM-13 756q-6 6 -6 16v74q0 10 6 16.5t16 6.5h74q10 0 16.5 -6.5t6.5 -16.5v-74q0 -10 -6.5 -16t-16.5 -6h-74q-10 0 -16 6zM206 756q-6 6 -6 16v74
q0 10 6 16.5t16 6.5h74q10 0 16.5 -6.5t6.5 -16.5v-74q0 -10 -6.5 -16t-16.5 -6h-74q-10 0 -16 6z" />
    <glyph glyph-name="Eth" unicode="&#xd0;" horiz-adv-x="718" 
d="M98 7q-7 7 -7 17v278h-52q-10 0 -17 7t-7 17v52q0 10 7 17t17 7h52v273q0 11 7 18t17 7h245q149 0 224.5 -69.5t76.5 -202.5q1 -28 1 -77q0 -50 -1 -78q-1 -139 -74.5 -206t-223.5 -67h-248q-10 0 -17 7zM360 116q83 0 119 37t37 123q1 28 1 75q0 46 -1 74
q-1 83 -38.5 121t-120.5 38h-125v-182h111q10 0 17 -7t7 -17v-52q0 -10 -6.5 -17t-17.5 -7h-111v-186h128z" />
    <glyph glyph-name="Ntilde" unicode="&#xd1;" horiz-adv-x="707" 
d="M85 7q-7 7 -7 17v651q0 11 6.5 18t17.5 7h78q19 0 29 -17l286 -444v436q0 11 6.5 18t17.5 7h86q11 0 18 -7t7 -18v-650q0 -11 -7 -18t-17 -7h-79q-20 0 -30 17l-285 434v-427q0 -10 -6.5 -17t-17.5 -7h-86q-10 0 -17 7zM377.5 750q-13.5 5 -32.5 15q-14 8 -22.5 11.5
t-18.5 3.5q-9 0 -14 -3.5t-11 -12.5q-8 -14 -19 -14h-47q-7 0 -12 5t-5 12q0 23 11 49t33.5 44t55.5 18q19 0 32.5 -5t32.5 -15q14 -8 22.5 -11.5t18.5 -3.5q9 0 14 4t11 12q5 8 9 11t11 3h46q8 0 13 -5t5 -12q0 -23 -11.5 -49t-34.5 -44t-55 -18q-19 0 -32.5 5z" />
    <glyph glyph-name="Ograve" unicode="&#xd2;" horiz-adv-x="695" 
d="M135 59q-76 69 -80 205q-1 29 -1 85q0 57 1 86q4 133 82 204t211 71q132 0 210.5 -71t82.5 -204q2 -58 2 -86q0 -27 -2 -85q-4 -136 -80.5 -205t-212.5 -69q-137 0 -213 69zM454 146q39 40 42 123q2 60 2 81q0 23 -2 81q-3 82 -43 122.5t-105 40.5q-66 0 -106 -40.5
t-42 -122.5q-1 -29 -1 -81q0 -51 1 -81q2 -82 41.5 -122.5t106.5 -40.5t106 40zM309.5 753q-7.5 3 -16.5 10l-125 102q-5 5 -5 12q0 9 5 14.5t14 5.5h109q13 0 20 -4t17 -15l81 -99q5 -5 5 -13q0 -16 -16 -16h-70q-11 0 -18.5 3z" />
    <glyph glyph-name="Oacute" unicode="&#xd3;" horiz-adv-x="695" 
d="M135 59q-76 69 -80 205q-1 29 -1 85q0 57 1 86q4 133 82 204t211 71q132 0 210.5 -71t82.5 -204q2 -58 2 -86q0 -27 -2 -85q-4 -136 -80.5 -205t-212.5 -69q-137 0 -213 69zM454 146q39 40 42 123q2 60 2 81q0 23 -2 81q-3 82 -43 122.5t-105 40.5q-66 0 -106 -40.5
t-42 -122.5q-1 -29 -1 -81q0 -51 1 -81q2 -82 41.5 -122.5t106.5 -40.5t106 40zM286 766q0 8 5 13l82 99q9 11 16.5 15t20.5 4h108q9 0 14 -5.5t5 -14.5q0 -7 -5 -12l-125 -102q-9 -7 -16.5 -10t-18.5 -3h-70q-16 0 -16 16z" />
    <glyph glyph-name="Ocircumflex" unicode="&#xd4;" horiz-adv-x="695" 
d="M135 59q-76 69 -80 205q-1 29 -1 85q0 57 1 86q4 133 82 204t211 71q132 0 210.5 -71t82.5 -204q2 -58 2 -86q0 -27 -2 -85q-4 -136 -80.5 -205t-212.5 -69q-137 0 -213 69zM454 146q39 40 42 123q2 60 2 81q0 23 -2 81q-3 82 -43 122.5t-105 40.5q-66 0 -106 -40.5
t-42 -122.5q-1 -29 -1 -81q0 -51 1 -81q2 -82 41.5 -122.5t106.5 -40.5t106 40zM177 763q0 8 9 17l98 101q9 10 16.5 13t17.5 3h60q10 0 17 -3t17 -13l97 -101q9 -9 9 -17q0 -13 -14 -13h-40q-18 0 -31 7l-85 53l-85 -53q-13 -7 -31 -7h-40q-15 0 -15 13z" />
    <glyph glyph-name="Otilde" unicode="&#xd5;" horiz-adv-x="695" 
d="M135 59q-76 69 -80 205q-1 29 -1 85q0 57 1 86q4 133 82 204t211 71q132 0 210.5 -71t82.5 -204q2 -58 2 -86q0 -27 -2 -85q-4 -136 -80.5 -205t-212.5 -69q-137 0 -213 69zM454 146q39 40 42 123q2 60 2 81q0 23 -2 81q-3 82 -43 122.5t-105 40.5q-66 0 -106 -40.5
t-42 -122.5q-1 -29 -1 -81q0 -51 1 -81q2 -82 41.5 -122.5t106.5 -40.5t106 40zM371.5 750q-13.5 5 -32.5 15q-14 8 -22.5 11.5t-18.5 3.5q-9 0 -14 -3.5t-11 -12.5q-8 -14 -19 -14h-47q-7 0 -12 5t-5 12q0 23 11 49t33.5 44t55.5 18q19 0 32.5 -5t32.5 -15
q14 -8 22.5 -11.5t18.5 -3.5q9 0 14 4t11 12q5 8 9 11t11 3h46q8 0 13 -5t5 -12q0 -23 -11.5 -49t-34.5 -44t-55 -18q-19 0 -32.5 5z" />
    <glyph glyph-name="Odieresis" unicode="&#xd6;" horiz-adv-x="695" 
d="M135 59q-76 69 -80 205q-1 29 -1 85q0 57 1 86q4 133 82 204t211 71q132 0 210.5 -71t82.5 -204q2 -58 2 -86q0 -27 -2 -85q-4 -136 -80.5 -205t-212.5 -69q-137 0 -213 69zM454 146q39 40 42 123q2 60 2 81q0 23 -2 81q-3 82 -43 122.5t-105 40.5q-66 0 -106 -40.5
t-42 -122.5q-1 -29 -1 -81q0 -51 1 -81q2 -82 41.5 -122.5t106.5 -40.5t106 40zM185 756q-6 6 -6 16v74q0 10 6 16.5t16 6.5h74q10 0 16.5 -6.5t6.5 -16.5v-74q0 -10 -6.5 -16t-16.5 -6h-74q-10 0 -16 6zM404 756q-6 6 -6 16v74q0 10 6 16.5t16 6.5h74q10 0 16.5 -6.5
t6.5 -16.5v-74q0 -10 -6.5 -16t-16.5 -6h-74q-10 0 -16 6z" />
    <glyph glyph-name="multiply" unicode="&#xd7;" horiz-adv-x="582" 
d="M60 159q-7 9 -7 17t7 17l140 139l-140 141q-7 9 -7 17t7 17l57 57q7 7 17 7t17 -7l140 -141l140 140q8 8 17 8t17 -8l57 -57q7 -6 7 -17q0 -10 -7 -17l-140 -140l140 -139q7 -7 7 -17t-7 -17l-57 -57q-9 -7 -17 -7t-17 7l-140 140l-140 -140q-7 -7 -17 -7t-17 7z" />
    <glyph glyph-name="Oslash" unicode="&#xd8;" horiz-adv-x="723" 
d="M174 40.5q-72 50.5 -93 153.5l-38 -14q-8 -3 -12 -3q-9 0 -14.5 5t-5.5 14v56q0 12 5 18t17 11l36 13l-1 58q0 25 2 83q4 133 82.5 204t210.5 71q108 0 180.5 -49t97.5 -143l39 15q8 3 12 3q9 0 14.5 -5t5.5 -14v-57q0 -12 -5 -17.5t-17 -10.5l-33 -12l1 -66
q0 -30 -2 -90q-4 -136 -80 -205t-213 -69q-117 0 -189 50.5zM507 465q-9 65 -47 97t-97 32q-66 0 -105.5 -40.5t-42.5 -122.5q-2 -56 -1 -79zM469.5 146.5q39.5 40.5 41.5 122.5q2 66 1 94l-296 -116q8 -72 46.5 -106.5t100.5 -34.5q67 0 106.5 40.5z" />
    <glyph glyph-name="Ugrave" unicode="&#xd9;" horiz-adv-x="714" 
d="M147 59q-75 69 -75 209v407q0 11 6.5 18t17.5 7h92q11 0 18 -7t7 -18v-407q0 -79 37.5 -119t106.5 -40t106.5 40t37.5 119v407q0 11 7 18t18 7h92q11 0 17.5 -7t6.5 -18v-407q0 -140 -74.5 -209t-209.5 -69q-136 0 -211 69zM318.5 753q-7.5 3 -16.5 10l-125 102
q-5 5 -5 12q0 9 5 14.5t14 5.5h109q13 0 20 -4t17 -15l81 -99q5 -5 5 -13q0 -16 -16 -16h-70q-11 0 -18.5 3z" />
    <glyph glyph-name="Uacute" unicode="&#xda;" horiz-adv-x="714" 
d="M147 59q-75 69 -75 209v407q0 11 6.5 18t17.5 7h92q11 0 18 -7t7 -18v-407q0 -79 37.5 -119t106.5 -40t106.5 40t37.5 119v407q0 11 7 18t18 7h92q11 0 17.5 -7t6.5 -18v-407q0 -140 -74.5 -209t-209.5 -69q-136 0 -211 69zM295 766q0 8 5 13l82 99q9 11 16.5 15t20.5 4
h108q9 0 14 -5.5t5 -14.5q0 -7 -5 -12l-125 -102q-9 -7 -16.5 -10t-18.5 -3h-70q-16 0 -16 16z" />
    <glyph glyph-name="Ucircumflex" unicode="&#xdb;" horiz-adv-x="714" 
d="M147 59q-75 69 -75 209v407q0 11 6.5 18t17.5 7h92q11 0 18 -7t7 -18v-407q0 -79 37.5 -119t106.5 -40t106.5 40t37.5 119v407q0 11 7 18t18 7h92q11 0 17.5 -7t6.5 -18v-407q0 -140 -74.5 -209t-209.5 -69q-136 0 -211 69zM186 763q0 8 9 17l98 101q9 10 16.5 13t17.5 3
h60q10 0 17 -3t17 -13l97 -101q9 -9 9 -17q0 -13 -14 -13h-40q-18 0 -31 7l-85 53l-85 -53q-13 -7 -31 -7h-40q-15 0 -15 13z" />
    <glyph glyph-name="Udieresis" unicode="&#xdc;" horiz-adv-x="714" 
d="M147 59q-75 69 -75 209v407q0 11 6.5 18t17.5 7h92q11 0 18 -7t7 -18v-407q0 -79 37.5 -119t106.5 -40t106.5 40t37.5 119v407q0 11 7 18t18 7h92q11 0 17.5 -7t6.5 -18v-407q0 -140 -74.5 -209t-209.5 -69q-136 0 -211 69zM194 756q-6 6 -6 16v74q0 10 6 16.5t16 6.5h74
q10 0 16.5 -6.5t6.5 -16.5v-74q0 -10 -6.5 -16t-16.5 -6h-74q-10 0 -16 6zM413 756q-6 6 -6 16v74q0 10 6 16.5t16 6.5h74q10 0 16.5 -6.5t6.5 -16.5v-74q0 -10 -6.5 -16t-16.5 -6h-74q-10 0 -16 6z" />
    <glyph glyph-name="Yacute" unicode="&#xdd;" horiz-adv-x="665" 
d="M269 7q-7 7 -7 17v225l-237 419q-3 9 -3 11q0 9 6.5 15t14.5 6h90q19 0 31 -19l168 -290l169 290q4 7 11.5 13t18.5 6h90q9 0 15 -6t6 -15q0 -6 -3 -11l-236 -419v-225q0 -11 -7 -17.5t-18 -6.5h-92q-10 0 -17 7zM270 766q0 8 5 13l82 99q9 11 16.5 15t20.5 4h108
q9 0 14 -5.5t5 -14.5q0 -7 -5 -12l-125 -102q-9 -7 -16.5 -10t-18.5 -3h-70q-16 0 -16 16z" />
    <glyph glyph-name="Thorn" unicode="&#xde;" horiz-adv-x="663" 
d="M85 7q-7 7 -7 17v652q0 11 7 17.5t17 6.5h97q11 0 17.5 -6.5t6.5 -17.5v-101h145q122 0 191.5 -56.5t69.5 -165.5t-69 -164.5t-192 -55.5h-145v-109q0 -11 -7 -17.5t-18 -6.5h-96q-10 0 -17 7zM365 245q57 0 88 27.5t31 80.5q0 52 -29.5 81t-89.5 29h-144v-218h144z" />
    <glyph glyph-name="germandbls" unicode="&#xdf;" horiz-adv-x="616" 
d="M74 7q-7 7 -7 17v457q0 101 59.5 165t180.5 64q81 0 134.5 -27.5t78.5 -71.5t25 -94q0 -51 -21.5 -86t-56.5 -55q107 -40 107 -168q0 -51 -26 -98.5t-81 -78.5t-136 -31h-58q-12 0 -19.5 6.5t-7.5 17.5v56q0 11 7.5 17.5t19.5 6.5h39q58 0 91 30.5t33 77.5q0 48 -33 79
t-93 31h-39q-12 0 -18.5 6.5t-6.5 17.5v49q0 24 25 24h34q54 1 82.5 25t28.5 68q0 41 -30 67.5t-79 26.5q-50 0 -79 -31.5t-29 -93.5v-457q0 -10 -6.5 -17t-17.5 -7h-84q-10 0 -17 7z" />
    <glyph glyph-name="agrave" unicode="&#xe0;" horiz-adv-x="572" 
d="M123.5 10.5q-42.5 20.5 -67 55.5t-24.5 77q0 68 55 110t151 57l137 20v21q0 43 -22 65t-70 22q-33 0 -53 -12t-32.5 -24.5l-16.5 -16.5q-4 -12 -15 -12h-78q-9 0 -15.5 6t-6.5 16q1 25 24.5 56.5t72.5 55t121 23.5q118 0 172 -53t54 -139v-314q0 -10 -6.5 -17t-17.5 -7
h-83q-10 0 -17 7t-7 17v39q-22 -32 -62 -52.5t-100 -20.5q-51 0 -93.5 20.5zM341 122q35 36 35 104v20l-100 -16q-115 -18 -115 -77q0 -32 26.5 -49.5t63.5 -17.5q55 0 90 36zM247.5 598q-7.5 3 -16.5 10l-125 102q-5 5 -5 12q0 9 5 14.5t14 5.5h101q13 0 20.5 -4t16.5 -15
l82 -99q5 -5 5 -13q0 -16 -16 -16h-63q-11 0 -18.5 3z" />
    <glyph glyph-name="aacute" unicode="&#xe1;" horiz-adv-x="572" 
d="M123.5 10.5q-42.5 20.5 -67 55.5t-24.5 77q0 68 55 110t151 57l137 20v21q0 43 -22 65t-70 22q-33 0 -53 -12t-32.5 -24.5l-16.5 -16.5q-4 -12 -15 -12h-78q-9 0 -15.5 6t-6.5 16q1 25 24.5 56.5t72.5 55t121 23.5q118 0 172 -53t54 -139v-314q0 -10 -6.5 -17t-17.5 -7
h-83q-10 0 -17 7t-7 17v39q-22 -32 -62 -52.5t-100 -20.5q-51 0 -93.5 20.5zM341 122q35 36 35 104v20l-100 -16q-115 -18 -115 -77q0 -32 26.5 -49.5t63.5 -17.5q55 0 90 36zM214 611q0 8 5 13l82 99q9 11 16.5 15t20.5 4h101q9 0 14 -5.5t5 -14.5q0 -7 -5 -12l-125 -102
q-9 -7 -16.5 -10t-18.5 -3h-63q-16 0 -16 16z" />
    <glyph glyph-name="acircumflex" unicode="&#xe2;" horiz-adv-x="572" 
d="M123.5 10.5q-42.5 20.5 -67 55.5t-24.5 77q0 68 55 110t151 57l137 20v21q0 43 -22 65t-70 22q-33 0 -53 -12t-32.5 -24.5l-16.5 -16.5q-4 -12 -15 -12h-78q-9 0 -15.5 6t-6.5 16q1 25 24.5 56.5t72.5 55t121 23.5q118 0 172 -53t54 -139v-314q0 -10 -6.5 -17t-17.5 -7
h-83q-10 0 -17 7t-7 17v39q-22 -32 -62 -52.5t-100 -20.5q-51 0 -93.5 20.5zM341 122q35 36 35 104v20l-100 -16q-115 -18 -115 -77q0 -32 26.5 -49.5t63.5 -17.5q55 0 90 36zM112 608q0 8 9 17l97 101q10 10 17 13t17 3h56q10 0 17.5 -3t16.5 -13l98 -101q9 -9 9 -17
q0 -13 -15 -13h-38q-18 0 -31 7l-85 53l-85 -53q-13 -7 -31 -7h-37q-15 0 -15 13z" />
    <glyph glyph-name="atilde" unicode="&#xe3;" horiz-adv-x="572" 
d="M123.5 10.5q-42.5 20.5 -67 55.5t-24.5 77q0 68 55 110t151 57l137 20v21q0 43 -22 65t-70 22q-33 0 -53 -12t-32.5 -24.5l-16.5 -16.5q-4 -12 -15 -12h-78q-9 0 -15.5 6t-6.5 16q1 25 24.5 56.5t72.5 55t121 23.5q118 0 172 -53t54 -139v-314q0 -10 -6.5 -17t-17.5 -7
h-83q-10 0 -17 7t-7 17v39q-22 -32 -62 -52.5t-100 -20.5q-51 0 -93.5 20.5zM341 122q35 36 35 104v20l-100 -16q-115 -18 -115 -77q0 -32 26.5 -49.5t63.5 -17.5q55 0 90 36zM305 595q-13 5 -31 15q-13 8 -21 11.5t-18 3.5q-9 0 -14 -4t-11 -12q-8 -14 -19 -14h-47
q-7 0 -12 5t-5 12q0 23 10.5 48t32.5 42.5t55 17.5q19 0 32 -5t31 -15q13 -8 21 -11.5t18 -3.5q9 0 14.5 4t10.5 12q5 7 9 10.5t11 3.5h46q8 0 13 -5t5 -12q0 -23 -11 -48t-33.5 -42.5t-54.5 -17.5q-19 0 -32 5z" />
    <glyph glyph-name="adieresis" unicode="&#xe4;" horiz-adv-x="572" 
d="M123.5 10.5q-42.5 20.5 -67 55.5t-24.5 77q0 68 55 110t151 57l137 20v21q0 43 -22 65t-70 22q-33 0 -53 -12t-32.5 -24.5l-16.5 -16.5q-4 -12 -15 -12h-78q-9 0 -15.5 6t-6.5 16q1 25 24.5 56.5t72.5 55t121 23.5q118 0 172 -53t54 -139v-314q0 -10 -6.5 -17t-17.5 -7
h-83q-10 0 -17 7t-7 17v39q-22 -32 -62 -52.5t-100 -20.5q-51 0 -93.5 20.5zM341 122q35 36 35 104v20l-100 -16q-115 -18 -115 -77q0 -32 26.5 -49.5t63.5 -17.5q55 0 90 36zM136 620q-6 6 -6 16v74q0 10 6 16.5t16 6.5h74q10 0 16.5 -6.5t6.5 -16.5v-74q0 -10 -6.5 -16
t-16.5 -6h-74q-10 0 -16 6zM325 620q-6 6 -6 16v74q0 10 6 16.5t16 6.5h74q10 0 16.5 -6.5t6.5 -16.5v-74q0 -10 -6.5 -16t-16.5 -6h-74q-10 0 -16 6z" />
    <glyph glyph-name="aring" unicode="&#xe5;" horiz-adv-x="572" 
d="M123.5 10.5q-42.5 20.5 -67 55.5t-24.5 77q0 68 55 110t151 57l137 20v21q0 43 -22 65t-70 22q-33 0 -53 -12t-32.5 -24.5l-16.5 -16.5q-4 -12 -15 -12h-78q-9 0 -15.5 6t-6.5 16q1 25 24.5 56.5t72.5 55t121 23.5q118 0 172 -53t54 -139v-314q0 -10 -6.5 -17t-17.5 -7
h-83q-10 0 -17 7t-7 17v39q-22 -32 -62 -52.5t-100 -20.5q-51 0 -93.5 20.5zM341 122q35 36 35 104v20l-100 -16q-115 -18 -115 -77q0 -32 26.5 -49.5t63.5 -17.5q55 0 90 36zM217.5 613.5q-25.5 23.5 -25.5 59.5t25.5 60t62.5 24t62.5 -24t25.5 -60t-25.5 -59.5
t-62.5 -23.5t-62.5 23.5zM301.5 651.5q8.5 8.5 8.5 21.5t-8.5 21.5t-21.5 8.5t-21.5 -8.5t-8.5 -21.5t8.5 -21.5t21.5 -8.5t21.5 8.5z" />
    <glyph glyph-name="ae" unicode="&#xe6;" horiz-adv-x="904" 
d="M124 10q-44 20 -68 55t-24 78q0 68 55.5 111t151.5 58l136 19v20q0 43 -21.5 65t-70.5 22q-33 0 -53 -12t-32.5 -24.5l-16.5 -16.5q-4 -12 -15 -12h-78q-9 0 -15.5 6t-6.5 16q0 24 24 56t73.5 55.5t120.5 23.5q123 0 169 -67q64 67 166 67q89 0 143.5 -39t77.5 -98.5
t23 -126.5v-21q0 -10 -7 -17t-18 -7h-326v-8q2 -65 32 -97t74 -32q28 0 52 11.5t41 34.5q8 10 14 13t17 3h86q9 0 15 -5.5t6 -15.5q0 -22 -27 -54.5t-79.5 -56.5t-123.5 -24q-127 0 -192 90q-66 -90 -201 -90q-58 0 -102 20zM725 306v4q0 59 -27 93.5t-79 34.5
q-44 0 -74.5 -33t-32.5 -95v-4h213zM342 122q35 36 35 104v20l-100 -16q-115 -18 -115 -77q0 -32 26 -49.5t64 -17.5q55 0 90 36z" />
    <glyph glyph-name="ccedilla" unicode="&#xe7;" horiz-adv-x="572" 
d="M232 -206q-26 14 -26 28q0 5 4 9l17 15q5 5 10 5q4 0 19 -8.5t34 -8.5q16 0 26.5 9.5t10.5 24.5q0 14 -10.5 23t-26.5 9q-10 0 -24.5 -4.5t-19.5 -4.5q-7 0 -13 6l-19 19q-4 5 -4 11t7 20l20 48q-87 14 -137.5 72.5t-53.5 152.5l-1 40l1 40q4 108 69.5 169t175.5 61
q79 0 133.5 -28t81 -68.5t28.5 -77.5q1 -10 -6.5 -17t-17.5 -7h-89q-11 0 -16 4.5t-10 16.5q-15 38 -39.5 55t-62.5 17q-51 0 -79.5 -32t-30.5 -98l-1 -37l1 -33q6 -130 110 -130q39 0 63 16.5t39 55.5q4 11 9.5 16t16.5 5h89q10 0 17.5 -7t6.5 -17q-2 -35 -27.5 -75
t-79.5 -69.5t-133 -29.5l-21 -43q11 7 35 7q35 0 56.5 -23.5t21.5 -61.5t-25 -63.5t-69 -25.5q-34 0 -60 14z" />
    <glyph glyph-name="egrave" unicode="&#xe8;" horiz-adv-x="578" 
d="M113.5 54q-65.5 64 -69.5 182l-1 25q0 125 65.5 197t181.5 72q119 0 183.5 -72t64.5 -192v-21q0 -10 -7 -17t-18 -7h-332v-8q2 -56 30.5 -92.5t78.5 -36.5q57 0 93 46q9 11 14 13.5t17 2.5h88q9 0 15.5 -5t6.5 -14q0 -24 -28.5 -56.5t-81.5 -56.5t-123 -24
q-112 0 -177.5 64zM400 306v2q0 59 -29.5 94.5t-80.5 35.5t-80 -35.5t-29 -94.5v-2h219zM254.5 598q-7.5 3 -16.5 10l-125 102q-5 5 -5 12q0 9 5 14.5t14 5.5h101q13 0 20.5 -4t16.5 -15l82 -99q5 -5 5 -13q0 -16 -16 -16h-63q-11 0 -18.5 3z" />
    <glyph glyph-name="eacute" unicode="&#xe9;" horiz-adv-x="578" 
d="M113.5 54q-65.5 64 -69.5 182l-1 25q0 125 65.5 197t181.5 72q119 0 183.5 -72t64.5 -192v-21q0 -10 -7 -17t-18 -7h-332v-8q2 -56 30.5 -92.5t78.5 -36.5q57 0 93 46q9 11 14 13.5t17 2.5h88q9 0 15.5 -5t6.5 -14q0 -24 -28.5 -56.5t-81.5 -56.5t-123 -24
q-112 0 -177.5 64zM400 306v2q0 59 -29.5 94.5t-80.5 35.5t-80 -35.5t-29 -94.5v-2h219zM232 611q0 8 5 13l82 99q9 11 16.5 15t20.5 4h101q9 0 14 -5.5t5 -14.5q0 -7 -5 -12l-125 -102q-9 -7 -16.5 -10t-18.5 -3h-63q-16 0 -16 16z" />
    <glyph glyph-name="ecircumflex" unicode="&#xea;" horiz-adv-x="578" 
d="M113.5 54q-65.5 64 -69.5 182l-1 25q0 125 65.5 197t181.5 72q119 0 183.5 -72t64.5 -192v-21q0 -10 -7 -17t-18 -7h-332v-8q2 -56 30.5 -92.5t78.5 -36.5q57 0 93 46q9 11 14 13.5t17 2.5h88q9 0 15.5 -5t6.5 -14q0 -24 -28.5 -56.5t-81.5 -56.5t-123 -24
q-112 0 -177.5 64zM400 306v2q0 59 -29.5 94.5t-80.5 35.5t-80 -35.5t-29 -94.5v-2h219zM122 608q0 8 9 17l97 101q10 10 17 13t17 3h56q10 0 17.5 -3t16.5 -13l98 -101q9 -9 9 -17q0 -13 -15 -13h-38q-18 0 -31 7l-85 53l-85 -53q-13 -7 -31 -7h-37q-15 0 -15 13z" />
    <glyph glyph-name="edieresis" unicode="&#xeb;" horiz-adv-x="578" 
d="M113.5 54q-65.5 64 -69.5 182l-1 25q0 125 65.5 197t181.5 72q119 0 183.5 -72t64.5 -192v-21q0 -10 -7 -17t-18 -7h-332v-8q2 -56 30.5 -92.5t78.5 -36.5q57 0 93 46q9 11 14 13.5t17 2.5h88q9 0 15.5 -5t6.5 -14q0 -24 -28.5 -56.5t-81.5 -56.5t-123 -24
q-112 0 -177.5 64zM400 306v2q0 59 -29.5 94.5t-80.5 35.5t-80 -35.5t-29 -94.5v-2h219zM143 620q-6 6 -6 16v74q0 10 6 16.5t16 6.5h74q10 0 16.5 -6.5t6.5 -16.5v-74q0 -10 -6.5 -16t-16.5 -6h-74q-10 0 -16 6zM332 620q-6 6 -6 16v74q0 10 6 16.5t16 6.5h74
q10 0 16.5 -6.5t6.5 -16.5v-74q0 -10 -6.5 -16t-16.5 -6h-74q-10 0 -16 6z" />
    <glyph glyph-name="igrave" unicode="&#xec;" horiz-adv-x="265" 
d="M73 7q-7 7 -7 17v472q0 11 7 17.5t17 6.5h85q10 0 17 -7t7 -17v-472q0 -10 -7 -17t-17 -7h-85q-10 0 -17 7zM94.5 598q-7.5 3 -16.5 10l-125 102q-5 5 -5 12q0 9 5 14.5t14 5.5h101q13 0 20.5 -4t16.5 -15l82 -99q5 -5 5 -13q0 -16 -16 -16h-63q-11 0 -18.5 3z" />
    <glyph glyph-name="iacute" unicode="&#xed;" horiz-adv-x="265" 
d="M73 7q-7 7 -7 17v472q0 11 7 17.5t17 6.5h85q10 0 17 -7t7 -17v-472q0 -10 -7 -17t-17 -7h-85q-10 0 -17 7zM73 611q0 8 5 13l82 99q9 11 16.5 15t20.5 4h101q9 0 14 -5.5t5 -14.5q0 -7 -5 -12l-125 -102q-9 -7 -16.5 -10t-18.5 -3h-63q-16 0 -16 16z" />
    <glyph glyph-name="icircumflex" unicode="&#xee;" horiz-adv-x="265" 
d="M73 7q-7 7 -7 17v472q0 11 7 17.5t17 6.5h85q10 0 17 -7t7 -17v-472q0 -10 -7 -17t-17 -7h-85q-10 0 -17 7zM-36 608q0 8 9 17l97 101q10 10 17 13t17 3h56q10 0 17.5 -3t16.5 -13l98 -101q9 -9 9 -17q0 -13 -15 -13h-38q-18 0 -31 7l-85 53l-85 -53q-13 -7 -31 -7h-37
q-15 0 -15 13z" />
    <glyph glyph-name="idieresis" unicode="&#xef;" horiz-adv-x="265" 
d="M73 7q-7 7 -7 17v472q0 11 7 17.5t17 6.5h85q10 0 17 -7t7 -17v-472q0 -10 -7 -17t-17 -7h-85q-10 0 -17 7zM-16 620q-6 6 -6 16v74q0 10 6 16.5t16 6.5h74q10 0 16.5 -6.5t6.5 -16.5v-74q0 -10 -6.5 -16t-16.5 -6h-74q-10 0 -16 6zM173 620q-6 6 -6 16v74q0 10 6 16.5
t16 6.5h74q10 0 16.5 -6.5t6.5 -16.5v-74q0 -10 -6.5 -16t-16.5 -6h-74q-10 0 -16 6z" />
    <glyph glyph-name="eth" unicode="&#xf0;" horiz-adv-x="587" 
d="M108 54.5q-66 64.5 -66 176.5q0 73 30.5 127t87 83t131.5 29q49 0 83 -23q-19 54 -51 94l-105 -41q-8 -3 -12 -3q-9 0 -14.5 5t-5.5 14v23q0 12 5 18t17 11l67 26q-36 34 -76 64q-16 12 -16 21t6 15t15 6h90q27 0 43 -13l17 -15q26 -22 37 -34l92 36q8 3 12 3
q9 0 14.5 -5t5.5 -14v-23q0 -12 -5 -17.5t-17 -10.5l-53 -21q46 -59 71 -138.5t29 -192.5v-28q-3 -110 -68.5 -173.5t-180.5 -63.5q-117 0 -183 64.5zM373 126q28 35 29 92v24q-1 58 -28.5 93t-82.5 35t-82.5 -35t-28.5 -93v-25q2 -57 29.5 -91.5t81.5 -34.5t82 35z" />
    <glyph glyph-name="ntilde" unicode="&#xf1;" horiz-adv-x="625" 
d="M73 7q-7 7 -7 17v472q0 11 7 17.5t17 6.5h83q11 0 17.5 -6.5t6.5 -17.5v-41q61 75 167 75q92 0 146 -60t54 -165v-281q0 -10 -6.5 -17t-17.5 -7h-90q-10 0 -17 7t-7 17v275q0 58 -28.5 90.5t-81.5 32.5q-51 0 -82 -33t-31 -90v-275q0 -10 -6.5 -17t-17.5 -7h-89
q-10 0 -17 7zM339 595q-13 5 -31 15q-13 8 -21 11.5t-18 3.5q-9 0 -14 -4t-11 -12q-8 -14 -19 -14h-47q-7 0 -12 5t-5 12q0 23 10.5 48t32.5 42.5t55 17.5q19 0 32 -5t31 -15q13 -8 21 -11.5t18 -3.5q9 0 14.5 4t10.5 12q5 7 9 10.5t11 3.5h46q8 0 13 -5t5 -12
q0 -23 -11 -48t-33.5 -42.5t-54.5 -17.5q-19 0 -32 5z" />
    <glyph glyph-name="ograve" unicode="&#xf2;" horiz-adv-x="593" 
d="M115 50q-64 60 -69 166l-1 44l1 44q5 105 70 165.5t181 60.5q115 0 180 -60.5t70 -165.5q1 -12 1 -44t-1 -44q-5 -106 -69 -166t-181 -60q-118 0 -182 60zM378.5 124q28.5 33 30.5 97q1 10 1 39t-1 39q-2 64 -31 97.5t-81 33.5q-53 0 -82 -33.5t-31 -97.5l-1 -39l1 -39
q2 -64 31 -97t82 -33t81.5 33zM259.5 598q-7.5 3 -16.5 10l-125 102q-5 5 -5 12q0 9 5 14.5t14 5.5h101q13 0 20.5 -4t16.5 -15l82 -99q5 -5 5 -13q0 -16 -16 -16h-63q-11 0 -18.5 3z" />
    <glyph glyph-name="oacute" unicode="&#xf3;" horiz-adv-x="593" 
d="M115 50q-64 60 -69 166l-1 44l1 44q5 105 70 165.5t181 60.5q115 0 180 -60.5t70 -165.5q1 -12 1 -44t-1 -44q-5 -106 -69 -166t-181 -60q-118 0 -182 60zM378.5 124q28.5 33 30.5 97q1 10 1 39t-1 39q-2 64 -31 97.5t-81 33.5q-53 0 -82 -33.5t-31 -97.5l-1 -39l1 -39
q2 -64 31 -97t82 -33t81.5 33zM236 611q0 8 5 13l82 99q9 11 16.5 15t20.5 4h101q9 0 14 -5.5t5 -14.5q0 -7 -5 -12l-125 -102q-9 -7 -16.5 -10t-18.5 -3h-63q-16 0 -16 16z" />
    <glyph glyph-name="ocircumflex" unicode="&#xf4;" horiz-adv-x="593" 
d="M115 50q-64 60 -69 166l-1 44l1 44q5 105 70 165.5t181 60.5q115 0 180 -60.5t70 -165.5q1 -12 1 -44t-1 -44q-5 -106 -69 -166t-181 -60q-118 0 -182 60zM378.5 124q28.5 33 30.5 97q1 10 1 39t-1 39q-2 64 -31 97.5t-81 33.5q-53 0 -82 -33.5t-31 -97.5l-1 -39l1 -39
q2 -64 31 -97t82 -33t81.5 33zM128 608q0 8 9 17l97 101q10 10 17 13t17 3h56q10 0 17.5 -3t16.5 -13l98 -101q9 -9 9 -17q0 -13 -15 -13h-38q-18 0 -31 7l-85 53l-85 -53q-13 -7 -31 -7h-37q-15 0 -15 13z" />
    <glyph glyph-name="otilde" unicode="&#xf5;" horiz-adv-x="593" 
d="M115 50q-64 60 -69 166l-1 44l1 44q5 105 70 165.5t181 60.5q115 0 180 -60.5t70 -165.5q1 -12 1 -44t-1 -44q-5 -106 -69 -166t-181 -60q-118 0 -182 60zM378.5 124q28.5 33 30.5 97q1 10 1 39t-1 39q-2 64 -31 97.5t-81 33.5q-53 0 -82 -33.5t-31 -97.5l-1 -39l1 -39
q2 -64 31 -97t82 -33t81.5 33zM321 595q-13 5 -31 15q-13 8 -21 11.5t-18 3.5q-9 0 -14 -4t-11 -12q-8 -14 -19 -14h-47q-7 0 -12 5t-5 12q0 23 10.5 48t32.5 42.5t55 17.5q19 0 32 -5t31 -15q13 -8 21 -11.5t18 -3.5q9 0 14.5 4t10.5 12q5 7 9 10.5t11 3.5h46q8 0 13 -5
t5 -12q0 -23 -11 -48t-33.5 -42.5t-54.5 -17.5q-19 0 -32 5z" />
    <glyph glyph-name="odieresis" unicode="&#xf6;" horiz-adv-x="593" 
d="M115 50q-64 60 -69 166l-1 44l1 44q5 105 70 165.5t181 60.5q115 0 180 -60.5t70 -165.5q1 -12 1 -44t-1 -44q-5 -106 -69 -166t-181 -60q-118 0 -182 60zM378.5 124q28.5 33 30.5 97q1 10 1 39t-1 39q-2 64 -31 97.5t-81 33.5q-53 0 -82 -33.5t-31 -97.5l-1 -39l1 -39
q2 -64 31 -97t82 -33t81.5 33zM149 620q-6 6 -6 16v74q0 10 6 16.5t16 6.5h74q10 0 16.5 -6.5t6.5 -16.5v-74q0 -10 -6.5 -16t-16.5 -6h-74q-10 0 -16 6zM338 620q-6 6 -6 16v74q0 10 6 16.5t16 6.5h74q10 0 16.5 -6.5t6.5 -16.5v-74q0 -10 -6.5 -16t-16.5 -6h-74
q-10 0 -16 6z" />
    <glyph glyph-name="divide" unicode="&#xf7;" horiz-adv-x="545" 
d="M215 428q-7 7 -7 17v75q0 11 7 18t17 7h80q11 0 18 -7t7 -18v-75q0 -10 -7 -17t-18 -7h-80q-10 0 -17 7zM62 255q-7 7 -7 17v57q0 11 7 17.5t17 6.5h387q11 0 17.5 -6.5t6.5 -17.5v-57q0 -10 -7 -17t-17 -7h-387q-10 0 -17 7zM215 64q-7 7 -7 17v75q0 11 7 18t17 7h80
q11 0 18 -7t7 -18v-75q0 -10 -7 -17t-18 -7h-80q-10 0 -17 7z" />
    <glyph glyph-name="oslash" unicode="&#xf8;" horiz-adv-x="624" 
d="M163.5 26.5q-57.5 36.5 -82.5 100.5l-37 -14q-8 -3 -12 -3q-9 0 -14.5 5t-5.5 14v39q0 12 5 18t17 11l29 11q-2 38 -2 57l1 39q5 100 68 163t183 63q90 0 146.5 -36.5t82.5 -99.5l38 15q8 3 12 3q9 0 14.5 -5.5t5.5 -14.5v-39q0 -12 -5 -17.5t-17 -10.5l-28 -11
q2 -15 2 -55q0 -31 -1 -43q-5 -101 -66.5 -163.5t-183.5 -62.5q-92 0 -149.5 36.5zM420 346q-10 43 -38.5 63.5t-68.5 20.5q-50 0 -80 -30t-33 -93v-46zM426 218v43l-221 -86q20 -84 108 -84q107 0 113 127z" />
    <glyph glyph-name="ugrave" unicode="&#xf9;" horiz-adv-x="622" 
d="M114 50q-53 60 -53 165v281q0 11 7 17.5t17 6.5h90q10 0 17 -7t7 -17v-275q0 -123 107 -123q52 0 82.5 33t30.5 90v275q0 11 7 17.5t17 6.5h89q11 0 17.5 -6.5t6.5 -17.5v-472q0 -10 -6.5 -17t-17.5 -7h-83q-10 0 -17 7t-7 17v41q-55 -75 -166 -75q-92 0 -145 60z
M270.5 598q-7.5 3 -16.5 10l-125 102q-5 5 -5 12q0 9 5 14.5t14 5.5h101q13 0 20.5 -4t16.5 -15l82 -99q5 -5 5 -13q0 -16 -16 -16h-63q-11 0 -18.5 3z" />
    <glyph glyph-name="uacute" unicode="&#xfa;" horiz-adv-x="622" 
d="M114 50q-53 60 -53 165v281q0 11 7 17.5t17 6.5h90q10 0 17 -7t7 -17v-275q0 -123 107 -123q52 0 82.5 33t30.5 90v275q0 11 7 17.5t17 6.5h89q11 0 17.5 -6.5t6.5 -17.5v-472q0 -10 -6.5 -17t-17.5 -7h-83q-10 0 -17 7t-7 17v41q-55 -75 -166 -75q-92 0 -145 60z
M248 611q0 8 5 13l82 99q9 11 16.5 15t20.5 4h101q9 0 14 -5.5t5 -14.5q0 -7 -5 -12l-125 -102q-9 -7 -16.5 -10t-18.5 -3h-63q-16 0 -16 16z" />
    <glyph glyph-name="ucircumflex" unicode="&#xfb;" horiz-adv-x="622" 
d="M114 50q-53 60 -53 165v281q0 11 7 17.5t17 6.5h90q10 0 17 -7t7 -17v-275q0 -123 107 -123q52 0 82.5 33t30.5 90v275q0 11 7 17.5t17 6.5h89q11 0 17.5 -6.5t6.5 -17.5v-472q0 -10 -6.5 -17t-17.5 -7h-83q-10 0 -17 7t-7 17v41q-55 -75 -166 -75q-92 0 -145 60z
M140 608q0 8 9 17l97 101q10 10 17 13t17 3h56q10 0 17.5 -3t16.5 -13l98 -101q9 -9 9 -17q0 -13 -15 -13h-38q-18 0 -31 7l-85 53l-85 -53q-13 -7 -31 -7h-37q-15 0 -15 13z" />
    <glyph glyph-name="udieresis" unicode="&#xfc;" horiz-adv-x="622" 
d="M114 50q-53 60 -53 165v281q0 11 7 17.5t17 6.5h90q10 0 17 -7t7 -17v-275q0 -123 107 -123q52 0 82.5 33t30.5 90v275q0 11 7 17.5t17 6.5h89q11 0 17.5 -6.5t6.5 -17.5v-472q0 -10 -6.5 -17t-17.5 -7h-83q-10 0 -17 7t-7 17v41q-55 -75 -166 -75q-92 0 -145 60z
M161 620q-6 6 -6 16v74q0 10 6 16.5t16 6.5h74q10 0 16.5 -6.5t6.5 -16.5v-74q0 -10 -6.5 -16t-16.5 -6h-74q-10 0 -16 6zM350 620q-6 6 -6 16v74q0 10 6 16.5t16 6.5h74q10 0 16.5 -6.5t6.5 -16.5v-74q0 -10 -6.5 -16t-16.5 -6h-74q-10 0 -16 6z" />
    <glyph glyph-name="yacute" unicode="&#xfd;" horiz-adv-x="575" 
d="M145.5 -184q-6.5 6 -6.5 14q0 7 4 16l79 185l-192 453q-4 9 -4 14q1 9 7 15.5t15 6.5h83q18 0 26 -19l133 -326l135 326q10 19 28 19h81q9 0 15 -6t6 -14q0 -7 -4 -16l-283 -655q-8 -19 -28 -19h-80q-8 0 -14.5 6zM231 611q0 8 5 13l82 99q9 11 16.5 15t20.5 4h101
q9 0 14 -5.5t5 -14.5q0 -7 -5 -12l-125 -102q-9 -7 -16.5 -10t-18.5 -3h-63q-16 0 -16 16z" />
    <glyph glyph-name="thorn" unicode="&#xfe;" horiz-adv-x="615" 
d="M74 -183.5q-7 6.5 -7 17.5v852q0 11 7 17.5t17 6.5h87q11 0 17.5 -6.5t6.5 -17.5v-226q26 34 62 52t92 18q101 0 155 -63.5t58 -170.5q1 -12 1 -36t-1 -36q-4 -105 -58.5 -169.5t-154.5 -64.5q-101 0 -154 71v-227q0 -11 -6.5 -17.5t-17.5 -6.5h-87q-10 0 -17 6.5z
M431 230q1 10 1 30t-1 30q-7 132 -113 132q-57 0 -85 -36.5t-31 -90.5l-1 -38l1 -39q2 -50 31.5 -85t84.5 -35q106 0 113 132z" />
    <glyph glyph-name="ydieresis" unicode="&#xff;" horiz-adv-x="575" 
d="M145.5 -184q-6.5 6 -6.5 14q0 7 4 16l79 185l-192 453q-4 9 -4 14q1 9 7 15.5t15 6.5h83q18 0 26 -19l133 -326l135 326q10 19 28 19h81q9 0 15 -6t6 -14q0 -7 -4 -16l-283 -655q-8 -19 -28 -19h-80q-8 0 -14.5 6zM142 620q-6 6 -6 16v74q0 10 6 16.5t16 6.5h74
q10 0 16.5 -6.5t6.5 -16.5v-74q0 -10 -6.5 -16t-16.5 -6h-74q-10 0 -16 6zM331 620q-6 6 -6 16v74q0 10 6 16.5t16 6.5h74q10 0 16.5 -6.5t6.5 -16.5v-74q0 -10 -6.5 -16t-16.5 -6h-74q-10 0 -16 6z" />
    <glyph glyph-name="Amacron" unicode="&#x100;" horiz-adv-x="694" 
d="M20 6q-6 6 -6 15l2 9l240 645q10 25 36 25h110q26 0 36 -25l240 -645l2 -9q0 -9 -6.5 -15t-14.5 -6h-89q-21 0 -29 19l-46 121h-296l-46 -121q-8 -19 -29 -19h-89q-9 0 -15 6zM234 256h226l-113 308zM194 756q-6 6 -6 16v57q0 10 6 16t16 6h273q10 0 16.5 -6t6.5 -16v-57
q0 -10 -6.5 -16t-16.5 -6h-273q-10 0 -16 6z" />
    <glyph glyph-name="amacron" unicode="&#x101;" horiz-adv-x="572" 
d="M123.5 10.5q-42.5 20.5 -67 55.5t-24.5 77q0 68 55 110t151 57l137 20v21q0 43 -22 65t-70 22q-33 0 -53 -12t-32.5 -24.5l-16.5 -16.5q-4 -12 -15 -12h-78q-9 0 -15.5 6t-6.5 16q1 25 24.5 56.5t72.5 55t121 23.5q118 0 172 -53t54 -139v-314q0 -10 -6.5 -17t-17.5 -7
h-83q-10 0 -17 7t-7 17v39q-22 -32 -62 -52.5t-100 -20.5q-51 0 -93.5 20.5zM341 122q35 36 35 104v20l-100 -16q-115 -18 -115 -77q0 -32 26.5 -49.5t63.5 -17.5q55 0 90 36zM139 617q-6 6 -6 16v52q0 10 6 16t16 6h252q10 0 16.5 -6t6.5 -16v-52q0 -10 -6.5 -16t-16.5 -6
h-252q-10 0 -16 6z" />
    <glyph glyph-name="Abreve" unicode="&#x102;" horiz-adv-x="694" 
d="M20 6q-6 6 -6 15l2 9l240 645q10 25 36 25h110q26 0 36 -25l240 -645l2 -9q0 -9 -6.5 -15t-14.5 -6h-89q-21 0 -29 19l-46 121h-296l-46 -121q-8 -19 -29 -19h-89q-9 0 -15 6zM234 256h226l-113 308zM240 779q-34 37 -34 96q0 8 5 13.5t14 5.5h50q9 0 14 -5.5t5 -13.5
q0 -27 12 -44.5t41 -17.5q28 0 40 17.5t12 44.5q0 8 5 13.5t14 5.5h50q9 0 14 -5.5t5 -13.5q0 -59 -34 -96t-106 -37q-73 0 -107 37z" />
    <glyph glyph-name="abreve" unicode="&#x103;" horiz-adv-x="572" 
d="M123.5 10.5q-42.5 20.5 -67 55.5t-24.5 77q0 68 55 110t151 57l137 20v21q0 43 -22 65t-70 22q-33 0 -53 -12t-32.5 -24.5l-16.5 -16.5q-4 -12 -15 -12h-78q-9 0 -15.5 6t-6.5 16q1 25 24.5 56.5t72.5 55t121 23.5q118 0 172 -53t54 -139v-314q0 -10 -6.5 -17t-17.5 -7
h-83q-10 0 -17 7t-7 17v39q-22 -32 -62 -52.5t-100 -20.5q-51 0 -93.5 20.5zM341 122q35 36 35 104v20l-100 -16q-115 -18 -115 -77q0 -32 26.5 -49.5t63.5 -17.5q55 0 90 36zM179.5 627.5q-33.5 37.5 -33.5 95.5q0 8 5 13.5t14 5.5h48q9 0 14 -5.5t5 -13.5q0 -62 49 -62
q50 0 50 62q0 8 5 13.5t14 5.5h48q9 0 14 -5.5t5 -13.5q0 -58 -33.5 -95.5t-102.5 -37.5q-68 0 -101.5 37.5z" />
    <glyph glyph-name="Aogonek" unicode="&#x104;" horiz-adv-x="694" 
d="M517.5 -178.5q-38.5 41.5 -38.5 110.5q0 38 17 64.5t47 35.5q-9 3 -13 15l-35 93h-296l-46 -121q-8 -19 -29 -19h-89q-9 0 -15 6t-6 15l2 9l240 645q10 25 36 25h110q26 0 36 -25l240 -645l2 -9q0 -9 -6.5 -15t-14.5 -6h-30q-29 -1 -46 -20t-17 -48q0 -30 17.5 -49
t48.5 -19h13q10 0 17 -7t7 -17v-36q0 -10 -7 -17t-17 -7h-17q-72 0 -110.5 41.5zM234 256h226l-113 308z" />
    <glyph glyph-name="aogonek" unicode="&#x105;" horiz-adv-x="572" 
d="M374.5 -180q-36.5 40 -36.5 107q0 30 15 55t35 38q-9 4 -9 13v30q-22 -32 -62 -52.5t-100 -20.5q-51 0 -93.5 20.5t-67 55.5t-24.5 77q0 68 55 110t151 57l137 20v21q0 43 -22 65t-70 22q-33 0 -53 -12t-32.5 -24.5l-16.5 -16.5q-4 -12 -15 -12h-78q-9 0 -15.5 6t-6.5 16
q1 25 24.5 56.5t72.5 55t121 23.5q118 0 172 -53t54 -139v-314q0 -8 -5 -14.5t-14 -8.5l-8 -1q-57 -17 -57 -73q0 -29 13.5 -46t39.5 -17h7q11 0 17.5 -7t6.5 -17v-36q0 -11 -6.5 -17.5t-17.5 -6.5h-11q-64 0 -100.5 40zM341 122q35 36 35 104v20l-100 -16
q-115 -18 -115 -77q0 -32 26.5 -49.5t63.5 -17.5q55 0 90 36z" />
    <glyph glyph-name="Cacute" unicode="&#x106;" horiz-adv-x="685" 
d="M134.5 60.5q-75.5 70.5 -80.5 200.5q-1 27 -1 88q0 62 1 90q5 128 81 199.5t213 71.5q89 0 155 -30.5t102.5 -83.5t38.5 -119v-2q0 -8 -6.5 -13.5t-14.5 -5.5h-97q-12 0 -18 5.5t-10 19.5q-15 62 -52 87.5t-98 25.5q-143 0 -149 -160q-1 -27 -1 -83t1 -85
q6 -160 149 -160q60 0 97.5 25.5t52.5 87.5q4 14 10 19.5t18 5.5h97q9 0 15.5 -6t5.5 -15q-2 -66 -38.5 -119t-102.5 -83.5t-155 -30.5q-138 0 -213.5 70.5zM281 766q0 8 5 13l82 99q9 11 16.5 15t20.5 4h108q9 0 14 -5.5t5 -14.5q0 -7 -5 -12l-125 -102q-9 -7 -16.5 -10
t-18.5 -3h-70q-16 0 -16 16z" />
    <glyph glyph-name="cacute" unicode="&#x107;" horiz-adv-x="572" 
d="M115.5 51q-65.5 61 -69.5 169l-1 40l1 40q4 108 69.5 169t175.5 61q79 0 133.5 -28t81 -68.5t28.5 -77.5q1 -10 -6.5 -17t-17.5 -7h-89q-11 0 -16 4.5t-10 16.5q-15 38 -39.5 55t-62.5 17q-51 0 -79.5 -32t-30.5 -98l-1 -37l1 -33q6 -130 110 -130q39 0 63 16.5t39 55.5
q4 11 9.5 16t16.5 5h89q10 0 17.5 -7t6.5 -17q-2 -35 -28 -75.5t-80 -69.5t-135 -29q-110 0 -175.5 61zM227 611q0 8 5 13l82 99q9 11 16.5 15t20.5 4h101q9 0 14 -5.5t5 -14.5q0 -7 -5 -12l-125 -102q-9 -7 -16.5 -10t-18.5 -3h-63q-16 0 -16 16z" />
    <glyph glyph-name="Ccircumflex" unicode="&#x108;" horiz-adv-x="685" 
d="M134.5 60.5q-75.5 70.5 -80.5 200.5q-1 27 -1 88q0 62 1 90q5 128 81 199.5t213 71.5q89 0 155 -30.5t102.5 -83.5t38.5 -119v-2q0 -8 -6.5 -13.5t-14.5 -5.5h-97q-12 0 -18 5.5t-10 19.5q-15 62 -52 87.5t-98 25.5q-143 0 -149 -160q-1 -27 -1 -83t1 -85
q6 -160 149 -160q60 0 97.5 25.5t52.5 87.5q4 14 10 19.5t18 5.5h97q9 0 15.5 -6t5.5 -15q-2 -66 -38.5 -119t-102.5 -83.5t-155 -30.5q-138 0 -213.5 70.5zM172 763q0 8 9 17l98 101q9 10 16.5 13t17.5 3h60q10 0 17 -3t17 -13l97 -101q9 -9 9 -17q0 -13 -14 -13h-40
q-18 0 -31 7l-85 53l-85 -53q-13 -7 -31 -7h-40q-15 0 -15 13z" />
    <glyph glyph-name="ccircumflex" unicode="&#x109;" horiz-adv-x="572" 
d="M115.5 51q-65.5 61 -69.5 169l-1 40l1 40q4 108 69.5 169t175.5 61q79 0 133.5 -28t81 -68.5t28.5 -77.5q1 -10 -6.5 -17t-17.5 -7h-89q-11 0 -16 4.5t-10 16.5q-15 38 -39.5 55t-62.5 17q-51 0 -79.5 -32t-30.5 -98l-1 -37l1 -33q6 -130 110 -130q39 0 63 16.5t39 55.5
q4 11 9.5 16t16.5 5h89q10 0 17.5 -7t6.5 -17q-2 -35 -28 -75.5t-80 -69.5t-135 -29q-110 0 -175.5 61zM122 614q0 8 9 17l97 101q10 10 17 13t17 3h56q10 0 17.5 -3t16.5 -13l98 -101q9 -9 9 -17q0 -13 -15 -13h-38q-18 0 -31 7l-85 53l-85 -53q-13 -7 -31 -7h-37
q-15 0 -15 13z" />
    <glyph glyph-name="Cdotaccent" unicode="&#x10a;" horiz-adv-x="685" 
d="M134.5 60.5q-75.5 70.5 -80.5 200.5q-1 27 -1 88q0 62 1 90q5 128 81 199.5t213 71.5q89 0 155 -30.5t102.5 -83.5t38.5 -119v-2q0 -8 -6.5 -13.5t-14.5 -5.5h-97q-12 0 -18 5.5t-10 19.5q-15 62 -52 87.5t-98 25.5q-143 0 -149 -160q-1 -27 -1 -83t1 -85
q6 -160 149 -160q60 0 97.5 25.5t52.5 87.5q4 14 10 19.5t18 5.5h97q9 0 15.5 -6t5.5 -15q-2 -66 -38.5 -119t-102.5 -83.5t-155 -30.5q-138 0 -213.5 70.5zM284 756q-6 6 -6 16v85q0 10 6 16.5t16 6.5h85q10 0 16.5 -6.5t6.5 -16.5v-85q0 -10 -6.5 -16t-16.5 -6h-85
q-10 0 -16 6z" />
    <glyph glyph-name="cdotaccent" unicode="&#x10b;" horiz-adv-x="572" 
d="M115.5 51q-65.5 61 -69.5 169l-1 40l1 40q4 108 69.5 169t175.5 61q79 0 133.5 -28t81 -68.5t28.5 -77.5q1 -10 -6.5 -17t-17.5 -7h-89q-11 0 -16 4.5t-10 16.5q-15 38 -39.5 55t-62.5 17q-51 0 -79.5 -32t-30.5 -98l-1 -37l1 -33q6 -130 110 -130q39 0 63 16.5t39 55.5
q4 11 9.5 16t16.5 5h89q10 0 17.5 -7t6.5 -17q-2 -35 -28 -75.5t-80 -69.5t-135 -29q-110 0 -175.5 61zM233 614q-6 6 -6 16v83q0 10 6 16.5t16 6.5h83q10 0 16.5 -6.5t6.5 -16.5v-83q0 -10 -6.5 -16t-16.5 -6h-83q-10 0 -16 6z" />
    <glyph glyph-name="Ccaron" unicode="&#x10c;" horiz-adv-x="685" 
d="M134.5 60.5q-75.5 70.5 -80.5 200.5q-1 27 -1 88q0 62 1 90q5 128 81 199.5t213 71.5q89 0 155 -30.5t102.5 -83.5t38.5 -119v-2q0 -8 -6.5 -13.5t-14.5 -5.5h-97q-12 0 -18 5.5t-10 19.5q-15 62 -52 87.5t-98 25.5q-143 0 -149 -160q-1 -27 -1 -83t1 -85
q6 -160 149 -160q60 0 97.5 25.5t52.5 87.5q4 14 10 19.5t18 5.5h97q9 0 15.5 -6t5.5 -15q-2 -66 -38.5 -119t-102.5 -83.5t-155 -30.5q-138 0 -213.5 70.5zM295.5 753q-7.5 3 -16.5 13l-98 101q-9 8 -9 17q0 13 15 13h40q18 0 31 -7l85 -53l85 53q13 7 31 7h40q14 0 14 -13
q0 -9 -9 -17l-97 -101q-10 -10 -17 -13t-17 -3h-60q-10 0 -17.5 3z" />
    <glyph glyph-name="ccaron" unicode="&#x10d;" horiz-adv-x="572" 
d="M115.5 51q-65.5 61 -69.5 169l-1 40l1 40q4 108 69.5 169t175.5 61q79 0 133.5 -28t81 -68.5t28.5 -77.5q1 -10 -6.5 -17t-17.5 -7h-89q-11 0 -16 4.5t-10 16.5q-15 38 -39.5 55t-62.5 17q-51 0 -79.5 -32t-30.5 -98l-1 -37l1 -33q6 -130 110 -130q39 0 63 16.5t39 55.5
q4 11 9.5 16t16.5 5h89q10 0 17.5 -7t6.5 -17q-2 -35 -28 -75.5t-80 -69.5t-135 -29q-110 0 -175.5 61zM245 598q-7 3 -17 13l-97 101q-9 8 -9 17q0 13 15 13h37q18 0 31 -7l85 -53l85 53q13 7 31 7h38q15 0 15 -13q0 -9 -9 -17l-98 -101q-9 -10 -16.5 -13t-17.5 -3h-56
q-10 0 -17 3z" />
    <glyph glyph-name="Dcaron" unicode="&#x10e;" horiz-adv-x="703" 
d="M85 7q-7 7 -7 17v651q0 11 6.5 18t17.5 7h244q295 0 301 -272q2 -58 2 -78q0 -19 -2 -77q-4 -140 -75.5 -206.5t-220.5 -66.5h-249q-10 0 -17 7zM346 116q83 0 120 37t39 123q2 60 2 75q0 16 -2 74q-2 82 -41 120.5t-123 38.5h-122v-468h127zM297.5 753q-7.5 3 -16.5 13
l-98 101q-9 8 -9 17q0 13 15 13h40q18 0 31 -7l85 -53l85 53q13 7 31 7h40q14 0 14 -13q0 -9 -9 -17l-97 -101q-10 -10 -17 -13t-17 -3h-60q-10 0 -17.5 3z" />
    <glyph glyph-name="dcaron" unicode="&#x10f;" horiz-adv-x="614" 
d="M104 54.5q-54 64.5 -59 172.5l-1 33l1 33q4 106 58.5 171.5t155.5 65.5q96 0 153 -66v222q0 11 7 17.5t17 6.5h87q11 0 17.5 -6.5t6.5 -17.5v-662q0 -10 -6.5 -17t-17.5 -7h-81q-10 0 -17 7t-7 17v37q-55 -71 -159 -71q-101 0 -155 64.5zM381.5 134.5
q27.5 36.5 30.5 90.5q1 12 1 38q0 27 -1 39q-2 50 -31 85t-84 35q-107 0 -114 -132l-1 -30l1 -30q7 -132 114 -132q57 0 84.5 36.5zM604 539.5q-5 6.5 -4 15.5l19 123q2 14 10 23t22 9h85q7 0 12.5 -5.5t5.5 -13.5q0 -6 -3 -13l-46 -119q-6 -12 -13 -19t-20 -7h-55
q-8 0 -13 6.5z" />
    <glyph glyph-name="Dcroat" unicode="&#x110;" horiz-adv-x="717" 
d="M98 7q-7 7 -7 17v278h-52q-10 0 -17 7t-7 18v51q0 11 7 17.5t17 6.5h52v273q0 11 7 18t17 7h245q293 0 301 -272q1 -29 1 -78q0 -48 -1 -77q-5 -140 -77 -206.5t-221 -66.5h-248q-10 0 -17 7zM360 116q83 0 119.5 37t38.5 123q2 60 2 75q0 16 -2 74q-2 83 -40 121
t-121 38h-125v-182h111q11 0 17.5 -6.5t6.5 -17.5v-51q0 -11 -7 -18t-17 -7h-111v-186h128z" />
    <glyph glyph-name="dcroat" unicode="&#x111;" horiz-adv-x="614" 
d="M101.5 56.5q-51.5 66.5 -55.5 170.5l-1 33l1 33q3 102 55 169.5t158 67.5q97 0 154 -66v97h-47q-10 0 -17 7t-7 18v29q0 11 7 17.5t17 6.5h47v47q0 11 7 17.5t17 6.5h87q11 0 17.5 -6.5t6.5 -17.5v-47h46q11 0 17.5 -6.5t6.5 -17.5v-29q0 -11 -7 -18t-17 -7h-46v-537
q0 -10 -6.5 -17t-17.5 -7h-81q-10 0 -17 7t-7 17v40q-56 -74 -160 -74q-106 0 -157.5 66.5zM382 134.5q28 36.5 31 90.5q1 12 1 38q0 27 -1 39q-2 50 -31.5 85t-84.5 35q-58 0 -84 -36t-29 -96q-1 -10 -1 -30t1 -30q3 -60 29 -96t84 -36q57 0 85 36.5z" />
    <glyph glyph-name="Emacron" unicode="&#x112;" horiz-adv-x="623" 
d="M85 7q-7 7 -7 17v651q0 11 6.5 18t17.5 7h441q11 0 18 -7t7 -18v-67q0 -11 -7 -17.5t-18 -6.5h-328v-175h306q11 0 18 -7t7 -18v-63q0 -11 -7 -17.5t-18 -6.5h-306v-181h336q11 0 18 -6.5t7 -17.5v-68q0 -11 -7 -17.5t-18 -6.5h-449q-10 0 -17 7zM159 756q-6 6 -6 16v57
q0 10 6 16t16 6h273q10 0 16.5 -6t6.5 -16v-57q0 -10 -6.5 -16t-16.5 -6h-273q-10 0 -16 6z" />
    <glyph glyph-name="emacron" unicode="&#x113;" horiz-adv-x="578" 
d="M113.5 54q-65.5 64 -69.5 182l-1 25q0 125 65.5 197t181.5 72q119 0 183.5 -72t64.5 -192v-21q0 -10 -7 -17t-18 -7h-332v-8q2 -56 30.5 -92.5t78.5 -36.5q57 0 93 46q9 11 14 13.5t17 2.5h88q9 0 15.5 -5t6.5 -14q0 -24 -28.5 -56.5t-81.5 -56.5t-123 -24
q-112 0 -177.5 64zM400 306v2q0 59 -29.5 94.5t-80.5 35.5t-80 -35.5t-29 -94.5v-2h219zM149 617q-6 6 -6 16v52q0 10 6 16t16 6h252q10 0 16.5 -6t6.5 -16v-52q0 -10 -6.5 -16t-16.5 -6h-252q-10 0 -16 6z" />
    <glyph glyph-name="Ebreve" unicode="&#x114;" horiz-adv-x="623" 
d="M85 7q-7 7 -7 17v651q0 11 6.5 18t17.5 7h441q11 0 18 -7t7 -18v-67q0 -11 -7 -17.5t-18 -6.5h-328v-175h306q11 0 18 -7t7 -18v-63q0 -11 -7 -17.5t-18 -6.5h-306v-181h336q11 0 18 -6.5t7 -17.5v-68q0 -11 -7 -17.5t-18 -6.5h-449q-10 0 -17 7zM205 779q-34 37 -34 96
q0 8 5 13.5t14 5.5h50q9 0 14 -5.5t5 -13.5q0 -27 12 -44.5t41 -17.5q28 0 40 17.5t12 44.5q0 8 5 13.5t14 5.5h50q9 0 14 -5.5t5 -13.5q0 -59 -34 -96t-106 -37q-73 0 -107 37z" />
    <glyph glyph-name="ebreve" unicode="&#x115;" horiz-adv-x="578" 
d="M113.5 54q-65.5 64 -69.5 182l-1 25q0 125 65.5 197t181.5 72q119 0 183.5 -72t64.5 -192v-21q0 -10 -7 -17t-18 -7h-332v-8q2 -56 30.5 -92.5t78.5 -36.5q57 0 93 46q9 11 14 13.5t17 2.5h88q9 0 15.5 -5t6.5 -14q0 -24 -28.5 -56.5t-81.5 -56.5t-123 -24
q-112 0 -177.5 64zM400 306v2q0 59 -29.5 94.5t-80.5 35.5t-80 -35.5t-29 -94.5v-2h219zM188.5 627.5q-33.5 37.5 -33.5 95.5q0 8 5 13.5t14 5.5h48q9 0 14 -5.5t5 -13.5q0 -62 49 -62q50 0 50 62q0 8 5 13.5t14 5.5h48q9 0 14 -5.5t5 -13.5q0 -58 -33.5 -95.5t-102.5 -37.5
q-68 0 -101.5 37.5z" />
    <glyph glyph-name="Edotaccent" unicode="&#x116;" horiz-adv-x="623" 
d="M85 7q-7 7 -7 17v651q0 11 6.5 18t17.5 7h441q11 0 18 -7t7 -18v-67q0 -11 -7 -17.5t-18 -6.5h-328v-175h306q11 0 18 -7t7 -18v-63q0 -11 -7 -17.5t-18 -6.5h-306v-181h336q11 0 18 -6.5t7 -17.5v-68q0 -11 -7 -17.5t-18 -6.5h-449q-10 0 -17 7zM253 756q-6 6 -6 16v85
q0 10 6 16.5t16 6.5h85q10 0 16.5 -6.5t6.5 -16.5v-85q0 -10 -6.5 -16t-16.5 -6h-85q-10 0 -16 6z" />
    <glyph glyph-name="edotaccent" unicode="&#x117;" horiz-adv-x="578" 
d="M113.5 54q-65.5 64 -69.5 182l-1 25q0 125 65.5 197t181.5 72q119 0 183.5 -72t64.5 -192v-21q0 -10 -7 -17t-18 -7h-332v-8q2 -56 30.5 -92.5t78.5 -36.5q57 0 93 46q9 11 14 13.5t17 2.5h88q9 0 15.5 -5t6.5 -14q0 -24 -28.5 -56.5t-81.5 -56.5t-123 -24
q-112 0 -177.5 64zM400 306v2q0 59 -29.5 94.5t-80.5 35.5t-80 -35.5t-29 -94.5v-2h219zM233 614q-6 6 -6 16v83q0 10 6 16.5t16 6.5h83q10 0 16.5 -6.5t6.5 -16.5v-83q0 -10 -6.5 -16t-16.5 -6h-83q-10 0 -16 6z" />
    <glyph glyph-name="Eogonek" unicode="&#x118;" horiz-adv-x="623" 
d="M424.5 -178.5q-38.5 41.5 -38.5 110.5q0 37 14 68h-298q-10 0 -17 7t-7 17v651q0 11 6.5 18t17.5 7h441q11 0 18 -7t7 -18v-67q0 -11 -7 -17.5t-18 -6.5h-328v-175h306q11 0 18 -7t7 -18v-63q0 -11 -7 -17.5t-18 -6.5h-306v-181h336q11 0 18 -6.5t7 -17.5v-68
q0 -11 -7 -17.5t-18 -6.5h-16q-29 -1 -45 -20t-16 -48q0 -30 17 -49t48 -19h13q11 0 17.5 -7t6.5 -17v-36q0 -11 -6.5 -17.5t-17.5 -6.5h-17q-72 0 -110.5 41.5z" />
    <glyph glyph-name="eogonek" unicode="&#x119;" horiz-adv-x="579" 
d="M233.5 -178.5q-38.5 41.5 -38.5 110.5q0 41 13 68q-75 21 -117.5 81.5t-46.5 154.5v49q5 114 71 179.5t176 65.5q119 0 183.5 -72t64.5 -192v-21q0 -10 -7 -17t-18 -7h-332v-8q2 -55 30.5 -92t77.5 -37q58 0 94 46q9 11 14 13.5t17 2.5h88q9 0 15 -5t6 -14
q0 -20 -21.5 -48t-62.5 -52t-95 -33q-63 -11 -63 -62q0 -30 17.5 -49t48.5 -19h12q11 0 18 -7t7 -17v-36q0 -10 -7 -17t-18 -7h-16q-72 0 -110.5 41.5zM400 306v2q0 59 -29.5 94.5t-80.5 35.5t-80 -35.5t-29 -94.5v-2h219z" />
    <glyph glyph-name="Ecaron" unicode="&#x11a;" horiz-adv-x="623" 
d="M85 7q-7 7 -7 17v651q0 11 6.5 18t17.5 7h441q11 0 18 -7t7 -18v-67q0 -11 -7 -17.5t-18 -6.5h-328v-175h306q11 0 18 -7t7 -18v-63q0 -11 -7 -17.5t-18 -6.5h-306v-181h336q11 0 18 -6.5t7 -17.5v-68q0 -11 -7 -17.5t-18 -6.5h-449q-10 0 -17 7zM264.5 753
q-7.5 3 -16.5 13l-98 101q-9 8 -9 17q0 13 15 13h40q18 0 31 -7l85 -53l85 53q13 7 31 7h40q14 0 14 -13q0 -9 -9 -17l-97 -101q-10 -10 -17 -13t-17 -3h-60q-10 0 -17.5 3z" />
    <glyph glyph-name="ecaron" unicode="&#x11b;" horiz-adv-x="578" 
d="M113.5 54q-65.5 64 -69.5 182l-1 25q0 125 65.5 197t181.5 72q119 0 183.5 -72t64.5 -192v-21q0 -10 -7 -17t-18 -7h-332v-8q2 -56 30.5 -92.5t78.5 -36.5q57 0 93 46q9 11 14 13.5t17 2.5h88q9 0 15.5 -5t6.5 -14q0 -24 -28.5 -56.5t-81.5 -56.5t-123 -24
q-112 0 -177.5 64zM400 306v2q0 59 -29.5 94.5t-80.5 35.5t-80 -35.5t-29 -94.5v-2h219zM245 598q-7 3 -17 13l-97 101q-9 8 -9 17q0 13 15 13h37q18 0 31 -7l85 -53l85 53q13 7 31 7h38q15 0 15 -13q0 -9 -9 -17l-98 -101q-9 -10 -16.5 -13t-17.5 -3h-56q-10 0 -17 3z" />
    <glyph glyph-name="Gcircumflex" unicode="&#x11c;" horiz-adv-x="701" 
d="M136.5 61q-76.5 71 -81.5 198q-1 29 -1 93t1 93q4 124 82 194.5t214 70.5q92 0 158.5 -31.5t100.5 -78t36 -91.5q0 -9 -6 -15t-16 -6h-105q-10 0 -15 4t-9 13q-14 37 -49 63t-95 26q-70 0 -109.5 -37.5t-41.5 -116.5q-1 -29 -1 -88q0 -58 1 -88q2 -81 42 -119.5
t110 -38.5q71 0 114 38t43 114v31h-122q-10 0 -17 7t-7 17v55q0 10 7 17t17 7h240q11 0 18 -7t7 -17v-106q0 -83 -37 -144.5t-105 -94.5t-159 -33q-138 0 -214.5 71zM184 763q0 8 9 17l98 101q9 10 16.5 13t17.5 3h60q10 0 17 -3t17 -13l97 -101q9 -9 9 -17q0 -13 -14 -13
h-40q-18 0 -31 7l-85 53l-85 -53q-13 -7 -31 -7h-40q-15 0 -15 13z" />
    <glyph glyph-name="gcircumflex" unicode="&#x11d;" horiz-adv-x="616" 
d="M157 -190.5q-55 29.5 -78 67.5t-23 65q0 10 7 16.5t17 6.5h89q9 0 15.5 -4.5t10.5 -16.5q11 -26 33 -44.5t68 -18.5q60 0 88 26.5t28 92.5v68q-54 -64 -153 -64q-104 0 -156.5 63t-56.5 172l-1 27l1 27q4 107 57 172t156 65q53 0 93 -20t66 -54v39q0 11 7.5 18t17.5 7h82
q10 0 17 -7t7 -18l1 -482q0 -111 -62 -172t-187 -61q-89 0 -144 29.5zM381 146q28 36 31 88q1 8 1 32t-1 32q-3 52 -31 88t-84 36q-108 0 -114 -132l-1 -24q0 -156 115 -156q56 0 84 36zM129 608q0 8 9 17l97 101q10 10 17 13t17 3h56q10 0 17.5 -3t16.5 -13l98 -101
q9 -9 9 -17q0 -13 -15 -13h-38q-18 0 -31 7l-85 53l-85 -53q-13 -7 -31 -7h-37q-15 0 -15 13z" />
    <glyph glyph-name="Gbreve" unicode="&#x11e;" horiz-adv-x="701" 
d="M136.5 61q-76.5 71 -81.5 198q-1 29 -1 93t1 93q4 124 82 194.5t214 70.5q92 0 158.5 -31.5t100.5 -78t36 -91.5q0 -9 -6 -15t-16 -6h-105q-10 0 -15 4t-9 13q-14 37 -49 63t-95 26q-70 0 -109.5 -37.5t-41.5 -116.5q-1 -29 -1 -88q0 -58 1 -88q2 -81 42 -119.5
t110 -38.5q71 0 114 38t43 114v31h-122q-10 0 -17 7t-7 17v55q0 10 7 17t17 7h240q11 0 18 -7t7 -17v-106q0 -83 -37 -144.5t-105 -94.5t-159 -33q-138 0 -214.5 71zM248 779q-34 37 -34 96q0 8 5 13.5t14 5.5h50q9 0 14 -5.5t5 -13.5q0 -27 12 -44.5t41 -17.5q28 0 40 17.5
t12 44.5q0 8 5 13.5t14 5.5h50q9 0 14 -5.5t5 -13.5q0 -59 -34 -96t-106 -37q-73 0 -107 37z" />
    <glyph glyph-name="gbreve" unicode="&#x11f;" horiz-adv-x="616" 
d="M157 -190.5q-55 29.5 -78 67.5t-23 65q0 10 7 16.5t17 6.5h89q9 0 15.5 -4.5t10.5 -16.5q11 -26 33 -44.5t68 -18.5q60 0 88 26.5t28 92.5v68q-54 -64 -153 -64q-104 0 -156.5 63t-56.5 172l-1 27l1 27q4 107 57 172t156 65q53 0 93 -20t66 -54v39q0 11 7.5 18t17.5 7h82
q10 0 17 -7t7 -18l1 -482q0 -111 -62 -172t-187 -61q-89 0 -144 29.5zM381 146q28 36 31 88q1 8 1 32t-1 32q-3 52 -31 88t-84 36q-108 0 -114 -132l-1 -24q0 -156 115 -156q56 0 84 36zM195.5 627.5q-33.5 37.5 -33.5 95.5q0 8 5 13.5t14 5.5h48q9 0 14 -5.5t5 -13.5
q0 -62 49 -62q50 0 50 62q0 8 5 13.5t14 5.5h48q9 0 14 -5.5t5 -13.5q0 -58 -33.5 -95.5t-102.5 -37.5q-68 0 -101.5 37.5z" />
    <glyph glyph-name="Gdotaccent" unicode="&#x120;" horiz-adv-x="701" 
d="M136.5 61q-76.5 71 -81.5 198q-1 29 -1 93t1 93q4 124 82 194.5t214 70.5q92 0 158.5 -31.5t100.5 -78t36 -91.5q0 -9 -6 -15t-16 -6h-105q-10 0 -15 4t-9 13q-14 37 -49 63t-95 26q-70 0 -109.5 -37.5t-41.5 -116.5q-1 -29 -1 -88q0 -58 1 -88q2 -81 42 -119.5
t110 -38.5q71 0 114 38t43 114v31h-122q-10 0 -17 7t-7 17v55q0 10 7 17t17 7h240q11 0 18 -7t7 -17v-106q0 -83 -37 -144.5t-105 -94.5t-159 -33q-138 0 -214.5 71zM296 756q-6 6 -6 16v85q0 10 6 16.5t16 6.5h85q10 0 16.5 -6.5t6.5 -16.5v-85q0 -10 -6.5 -16t-16.5 -6
h-85q-10 0 -16 6z" />
    <glyph glyph-name="gdotaccent" unicode="&#x121;" horiz-adv-x="616" 
d="M157 -190.5q-55 29.5 -78 67.5t-23 65q0 10 7 16.5t17 6.5h89q9 0 15.5 -4.5t10.5 -16.5q11 -26 33 -44.5t68 -18.5q60 0 88 26.5t28 92.5v68q-54 -64 -153 -64q-104 0 -156.5 63t-56.5 172l-1 27l1 27q4 107 57 172t156 65q53 0 93 -20t66 -54v39q0 11 7.5 18t17.5 7h82
q10 0 17 -7t7 -18l1 -482q0 -111 -62 -172t-187 -61q-89 0 -144 29.5zM381 146q28 36 31 88q1 8 1 32t-1 32q-3 52 -31 88t-84 36q-108 0 -114 -132l-1 -24q0 -156 115 -156q56 0 84 36zM240 614q-6 6 -6 16v83q0 10 6 16.5t16 6.5h83q10 0 16.5 -6.5t6.5 -16.5v-83
q0 -10 -6.5 -16t-16.5 -6h-83q-10 0 -16 6z" />
    <glyph glyph-name="Gcommaaccent" unicode="&#x122;" horiz-adv-x="701" 
d="M136.5 61q-76.5 71 -81.5 198q-1 29 -1 93t1 93q4 124 82 194.5t214 70.5q92 0 158.5 -31.5t100.5 -78t36 -91.5q0 -9 -6 -15t-16 -6h-105q-10 0 -15 4t-9 13q-14 37 -49 63t-95 26q-70 0 -109.5 -37.5t-41.5 -116.5q-1 -29 -1 -88q0 -58 1 -88q2 -81 42 -119.5
t110 -38.5q71 0 114 38t43 114v31h-122q-10 0 -17 7t-7 17v55q0 10 7 17t17 7h240q11 0 18 -7t7 -17v-106q0 -83 -37 -144.5t-105 -94.5t-159 -33q-138 0 -214.5 71zM270 -220.5q-5 6.5 -4 15.5l19 123q2 14 10 23t22 9h90q7 0 12.5 -5.5t5.5 -13.5q0 -6 -3 -13l-46 -119
q-6 -12 -13.5 -19t-20.5 -7h-58q-9 0 -14 6.5z" />
    <glyph glyph-name="gcommaaccent" unicode="&#x123;" horiz-adv-x="616" 
d="M390 765.5q5 -6.5 4 -15.5l-19 -123q-2 -14 -10 -23t-22 -9h-85q-7 0 -12.5 5.5t-5.5 13.5q0 6 3 13l46 119q6 12 13 19t20 7h55q8 0 13 -6.5zM157 -190.5q-55 29.5 -78 67.5t-23 65q0 10 7 16.5t17 6.5h89q9 0 15.5 -4.5t10.5 -16.5q11 -26 33 -44.5t68 -18.5
q60 0 88 26.5t28 92.5v68q-54 -64 -153 -64q-104 0 -156.5 63t-56.5 172l-1 27l1 27q4 107 57 172t156 65q53 0 93 -20t66 -54v39q0 11 7.5 18t17.5 7h82q10 0 17 -7t7 -18l1 -482q0 -111 -62 -172t-187 -61q-89 0 -144 29.5zM381 146q28 36 31 88q1 8 1 32t-1 32
q-3 52 -31 88t-84 36q-108 0 -114 -132l-1 -24q0 -156 115 -156q56 0 84 36z" />
    <glyph glyph-name="Hcircumflex" unicode="&#x124;" horiz-adv-x="730" 
d="M85 7q-7 7 -7 17v651q0 11 6.5 18t17.5 7h92q11 0 18 -7t7 -18v-257h292v257q0 11 7 18t17 7h93q11 0 17.5 -7t6.5 -18v-651q0 -10 -6.5 -17t-17.5 -7h-93q-10 0 -17 7t-7 17v267h-292v-267q0 -10 -7 -17t-18 -7h-92q-10 0 -17 7zM194 763q0 8 9 17l98 101q9 10 16.5 13
t17.5 3h60q10 0 17 -3t17 -13l97 -101q9 -9 9 -17q0 -13 -14 -13h-40q-18 0 -31 7l-85 53l-85 -53q-13 -7 -31 -7h-40q-15 0 -15 13z" />
    <glyph glyph-name="hcircumflex" unicode="&#x125;" horiz-adv-x="630" 
d="M74 7q-7 7 -7 17v662q0 11 7 17.5t17 6.5h91q11 0 17.5 -6.5t6.5 -17.5v-228q60 72 161 72q92 0 147 -60.5t55 -164.5v-281q0 -10 -6.5 -17t-17.5 -7h-91q-11 0 -18 7t-7 17v275q0 58 -28.5 90.5t-81.5 32.5q-51 0 -82 -33t-31 -90v-275q0 -10 -6.5 -17t-17.5 -7h-91
q-10 0 -17 7zM149 763q0 8 9 17l97 101q10 10 17 13t17 3h56q10 0 17.5 -3t16.5 -13l98 -101q9 -9 9 -17q0 -13 -15 -13h-38q-18 0 -31 7l-85 53l-85 -53q-13 -7 -31 -7h-37q-15 0 -15 13z" />
    <glyph glyph-name="Hbar" unicode="&#x126;" horiz-adv-x="730" 
d="M690.5 594.5q6.5 -6.5 6.5 -17.5v-37q0 -10 -7 -17t-17 -7h-21v-492q0 -10 -6.5 -17t-17.5 -7h-93q-10 0 -17 7t-7 17v267h-292v-267q0 -10 -7 -17t-18 -7h-92q-10 0 -17 7t-7 17v492h-16q-10 0 -17 7t-7 17v37q0 11 7 17.5t17 6.5h16v74q0 11 6.5 18t17.5 7h92
q11 0 18 -7t7 -18v-74h292v74q0 11 7 18t17 7h93q11 0 17.5 -7t6.5 -18v-74h21q11 0 17.5 -6.5zM511 418v98h-292v-98h292z" />
    <glyph glyph-name="hbar" unicode="&#x127;" horiz-adv-x="630" 
d="M73 7q-7 7 -7 17v533h-44q-10 0 -17 7t-7 17v30q0 11 7 17.5t17 6.5h44v51q0 10 7 17t18 7h91q11 0 17.5 -6.5t6.5 -17.5v-51h44q10 0 17 -7t7 -17v-30q0 -10 -7 -17t-17 -7h-44v-99q59 72 161 72q92 0 147 -60.5t55 -164.5v-280q0 -11 -7 -18t-17 -7h-92q-10 0 -17 7
t-7 18v274q0 58 -28.5 90.5t-81.5 32.5q-52 0 -82.5 -33t-30.5 -90v-275q0 -10 -6.5 -17t-17.5 -7h-91q-11 0 -18 7z" />
    <glyph glyph-name="Itilde" unicode="&#x128;" horiz-adv-x="300" 
d="M85 7q-7 7 -7 17v652q0 11 7 17.5t17 6.5h96q11 0 17.5 -6.5t6.5 -17.5v-652q0 -10 -6.5 -17t-17.5 -7h-96q-10 0 -17 7zM173.5 750q-13.5 5 -32.5 15q-14 8 -22.5 11.5t-18.5 3.5q-9 0 -14 -3.5t-11 -12.5q-8 -14 -19 -14h-47q-7 0 -12 5t-5 12q0 23 11 49t33.5 44
t55.5 18q19 0 32.5 -5t32.5 -15q14 -8 22.5 -11.5t18.5 -3.5q9 0 14 4t11 12q5 8 9 11t11 3h46q8 0 13 -5t5 -12q0 -23 -11.5 -49t-34.5 -44t-55 -18q-19 0 -32.5 5z" />
    <glyph glyph-name="itilde" unicode="&#x129;" horiz-adv-x="265" 
d="M73 7q-7 7 -7 17v472q0 11 7 17.5t17 6.5h85q10 0 17 -7t7 -17v-472q0 -10 -7 -17t-17 -7h-85q-10 0 -17 7zM156 595q-13 5 -31 15q-13 8 -21 11.5t-18 3.5q-9 0 -14 -4t-11 -12q-8 -14 -19 -14h-47q-7 0 -12 5t-5 12q0 23 10.5 48t32.5 42.5t55 17.5q19 0 32 -5t31 -15
q13 -8 21 -11.5t18 -3.5q9 0 14.5 4t10.5 12q5 7 9 10.5t11 3.5h46q8 0 13 -5t5 -12q0 -23 -11 -48t-33.5 -42.5t-54.5 -17.5q-19 0 -32 5z" />
    <glyph glyph-name="Imacron" unicode="&#x12a;" horiz-adv-x="300" 
d="M85 7q-7 7 -7 17v652q0 11 7 17.5t17 6.5h96q11 0 17.5 -6.5t6.5 -17.5v-652q0 -10 -6.5 -17t-17.5 -7h-96q-10 0 -17 7zM-3 756q-6 6 -6 16v57q0 10 6 16t16 6h273q10 0 16.5 -6t6.5 -16v-57q0 -10 -6.5 -16t-16.5 -6h-273q-10 0 -16 6z" />
    <glyph glyph-name="imacron" unicode="&#x12b;" horiz-adv-x="265" 
d="M73 7q-7 7 -7 17v472q0 11 7 17.5t17 6.5h85q10 0 17 -7t7 -17v-472q0 -10 -7 -17t-17 -7h-85q-10 0 -17 7zM-10 617q-6 6 -6 16v52q0 10 6 16t16 6h252q10 0 16.5 -6t6.5 -16v-52q0 -10 -6.5 -16t-16.5 -6h-252q-10 0 -16 6z" />
    <glyph glyph-name="Ibreve" unicode="&#x12c;" horiz-adv-x="300" 
d="M85 7q-7 7 -7 17v652q0 11 7 17.5t17 6.5h96q11 0 17.5 -6.5t6.5 -17.5v-652q0 -10 -6.5 -17t-17.5 -7h-96q-10 0 -17 7zM43 779q-34 37 -34 96q0 8 5 13.5t14 5.5h50q9 0 14 -5.5t5 -13.5q0 -27 12 -44.5t41 -17.5q28 0 40 17.5t12 44.5q0 8 5 13.5t14 5.5h50
q9 0 14 -5.5t5 -13.5q0 -59 -34 -96t-106 -37q-73 0 -107 37z" />
    <glyph glyph-name="ibreve" unicode="&#x12d;" horiz-adv-x="265" 
d="M73 7q-7 7 -7 17v472q0 11 7 17.5t17 6.5h85q10 0 17 -7t7 -17v-472q0 -10 -7 -17t-17 -7h-85q-10 0 -17 7zM29.5 627.5q-33.5 37.5 -33.5 95.5q0 8 5 13.5t14 5.5h48q9 0 14 -5.5t5 -13.5q0 -62 49 -62q50 0 50 62q0 8 5 13.5t14 5.5h48q9 0 14 -5.5t5 -13.5
q0 -58 -33.5 -95.5t-102.5 -37.5q-68 0 -101.5 37.5z" />
    <glyph glyph-name="Iogonek" unicode="&#x12e;" horiz-adv-x="310" 
d="M81.5 -179.5q-38.5 41.5 -38.5 110.5q0 39 17.5 65.5t48.5 35.5l-9 5q-5 2 -8.5 6.5t-3.5 10.5v622q0 10 7 17t17 7h96q11 0 18 -7t7 -17v-652q0 -10 -7 -17t-18 -7h-12q-31 0 -48.5 -19.5t-17.5 -49.5q0 -29 17.5 -48.5t48.5 -19.5h12q11 0 18 -7t7 -17v-36
q0 -10 -7 -17t-18 -7h-16q-72 0 -110.5 41.5z" />
    <glyph glyph-name="iogonek" unicode="&#x12f;" horiz-adv-x="277" 
d="M81 612q-7 7 -7 17v73q0 11 7 18t17 7h93q10 0 17 -7.5t7 -17.5v-73q0 -10 -7 -17t-17 -7h-93q-10 0 -17 7zM69 -169q-38 39 -38 104q0 37 16 62t45 34l-2 3q-5 1 -8.5 5t-3.5 10v447q0 11 7 17.5t17 6.5h85q11 0 17.5 -6.5t6.5 -17.5v-472q0 -10 -6.5 -17t-17.5 -7h-7
q-31 0 -48 -17.5t-17 -47.5q0 -29 17 -46t48 -17h13q10 0 17 -7t7 -18v-31q0 -11 -6.5 -17.5t-17.5 -6.5h-17q-69 0 -107 39z" />
    <glyph glyph-name="Idotaccent" unicode="&#x130;" horiz-adv-x="300" 
d="M85 7q-7 7 -7 17v652q0 11 7 17.5t17 6.5h96q11 0 17.5 -6.5t6.5 -17.5v-652q0 -10 -6.5 -17t-17.5 -7h-96q-10 0 -17 7zM91 756q-6 6 -6 16v85q0 10 6 16.5t16 6.5h85q10 0 16.5 -6.5t6.5 -16.5v-85q0 -10 -6.5 -16t-16.5 -6h-85q-10 0 -16 6z" />
    <glyph glyph-name="dotlessi" unicode="&#x131;" horiz-adv-x="265" 
d="M73 7q-7 7 -7 17v472q0 11 7 17.5t17 6.5h85q10 0 17 -7t7 -17v-472q0 -10 -7 -17t-17 -7h-85q-10 0 -17 7z" />
    <glyph glyph-name="IJ" unicode="&#x132;" horiz-adv-x="680" 
d="M85 7q-7 7 -7 17v652q0 11 7 17.5t17 6.5h96q11 0 17.5 -6.5t6.5 -17.5v-652q0 -10 -6.5 -17t-17.5 -7h-96q-10 0 -17 7zM309 -3q-7 7 -7 17v76q0 11 7 18t17 7q68 0 102.5 41t34.5 118v402q0 10 7 17t18 7h95q11 0 18 -7t7 -18v-419q0 -132 -73 -199t-209 -67
q-10 0 -17 7z" />
    <glyph glyph-name="ij" unicode="&#x133;" horiz-adv-x="545" 
d="M69 612q-7 7 -7 17v73q0 11 7 18t17 7h92q11 0 18 -7t7 -18v-73q0 -10 -7.5 -17t-17.5 -7h-92q-10 0 -17 7zM73 7q-7 7 -7 17v472q0 11 7 17.5t17 6.5h85q10 0 17 -7t7 -17v-472q0 -10 -7 -17t-17 -7h-85q-10 0 -17 7zM344 612q-7 7 -7 17v73q0 10 7 17.5t17 7.5h97
q10 0 17 -7t7 -18v-73q0 -10 -7 -17t-17 -7h-97q-10 0 -17 7zM227.5 -183.5q-6.5 6.5 -6.5 17.5v59q0 10 6.5 17t17.5 7h26q42 0 56.5 21.5t14.5 63.5v494q0 11 7 17.5t17 6.5h88q11 0 17.5 -6.5t6.5 -17.5v-497q0 -90 -49 -139.5t-145 -49.5h-39q-11 0 -17.5 6.5z" />
    <glyph glyph-name="Jcircumflex" unicode="&#x134;" horiz-adv-x="653" 
d="M168.5 15q-61.5 25 -99 75t-39.5 121q0 9 6 15.5t16 6.5h97q23 0 29 -25q8 -52 42.5 -77t87.5 -25q62 0 95.5 40.5t33.5 113.5v320h-339q-10 0 -17 7t-7 18v71q0 11 7 17.5t17 6.5h459q11 0 17.5 -7t6.5 -18v-419q0 -83 -34 -143t-96.5 -91.5t-146.5 -31.5
q-74 0 -135.5 25zM161 763q0 8 9 17l98 101q9 10 16.5 13t17.5 3h60q10 0 17 -3t17 -13l97 -101q9 -9 9 -17q0 -13 -14 -13h-40q-18 0 -31 7l-85 53l-85 -53q-13 -7 -31 -7h-40q-15 0 -15 13z" />
    <glyph glyph-name="jcircumflex" unicode="&#x135;" horiz-adv-x="358" 
d="M22 -183.5q-7 6.5 -7 17.5v73q0 10 7 17t17 7h45q41 0 55.5 22t14.5 63v394h-108q-10 0 -17 7t-7 17v62q0 11 7 17.5t17 6.5h221q11 0 17.5 -6.5t6.5 -17.5v-480q0 -95 -49 -150.5t-145 -55.5h-58q-10 0 -17 6.5zM-1 608q0 8 9 17l97 101q10 10 17 13t17 3h56
q10 0 17.5 -3t16.5 -13l98 -101q9 -9 9 -17q0 -13 -15 -13h-38q-18 0 -31 7l-85 53l-85 -53q-13 -7 -31 -7h-37q-15 0 -15 13z" />
    <glyph glyph-name="Kcommaaccent" unicode="&#x136;" horiz-adv-x="633" 
d="M85 7q-7 7 -7 17v651q0 11 6.5 18t17.5 7h90q11 0 18 -7t7 -18v-234l223 241q15 18 39 18h102q8 0 14.5 -6t6.5 -15q0 -7 -5 -12l-272 -302l292 -331q4 -7 4 -13q0 -9 -6 -15t-14 -6h-105q-21 0 -30 8.5t-10 9.5l-239 264v-258q0 -10 -7 -17t-18 -7h-90q-10 0 -17 7z
M239 -220.5q-5 6.5 -4 15.5l19 123q2 14 10 23t22 9h90q7 0 12.5 -5.5t5.5 -13.5q0 -6 -3 -13l-46 -119q-6 -12 -13.5 -19t-20.5 -7h-58q-9 0 -14 6.5z" />
    <glyph glyph-name="kcommaaccent" unicode="&#x137;" horiz-adv-x="552" 
d="M74 7q-7 7 -7 17v662q0 11 7 17.5t17 6.5h83q10 0 17 -7t7 -17v-342l166 159q3 2 9.5 7.5t12.5 7.5t15 2h95q10 0 16 -6t6 -16q0 -9 -10 -18l-204 -193l229 -248q9 -9 9 -17q0 -10 -6 -16t-15 -6h-97q-14 0 -20.5 3.5t-16.5 13.5l-189 201v-194q0 -10 -7 -17t-17 -7h-83
q-10 0 -17 7zM186 -220.5q-5 6.5 -4 15.5l19 123q2 14 10 23t22 9h85q7 0 12.5 -5.5t5.5 -13.5q0 -6 -3 -13l-46 -119q-6 -12 -13 -19t-20 -7h-55q-8 0 -13 6.5z" />
    <glyph glyph-name="kgreenlandic" unicode="&#x138;" horiz-adv-x="553" 
d="M73 7q-7 7 -7 17v472q0 11 7 17.5t17 6.5h83q11 0 17.5 -6.5t6.5 -17.5v-179l176 186q2 2 8.5 7.5t12.5 7.5t15 2h90q9 0 15 -6t6 -16q0 -9 -9 -18l-205 -217l227 -224q9 -9 9 -17q0 -10 -6 -16t-16 -6h-98q-12 0 -18 3t-11.5 7.5t-7.5 6.5l-188 185v-178q0 -10 -6.5 -17
t-17.5 -7h-83q-10 0 -17 7z" />
    <glyph glyph-name="Lacute" unicode="&#x139;" horiz-adv-x="581" 
d="M85 7q-7 7 -7 17v652q0 11 7 17.5t17 6.5h94q11 0 17.5 -6.5t6.5 -17.5v-556h317q11 0 18 -7t7 -17v-72q0 -10 -7 -17t-18 -7h-435q-10 0 -17 7zM83 766q0 8 5 13l82 99q9 11 16.5 15t20.5 4h108q9 0 14 -5.5t5 -14.5q0 -7 -5 -12l-125 -102q-9 -7 -16.5 -10t-18.5 -3
h-70q-16 0 -16 16z" />
    <glyph glyph-name="lacute" unicode="&#x13a;" horiz-adv-x="266" 
d="M74 7q-7 7 -7 17v662q0 11 7 17.5t17 6.5h84q11 0 17.5 -6.5t6.5 -17.5v-662q0 -10 -6.5 -17t-17.5 -7h-84q-10 0 -17 7zM84 766q0 8 5 13l82 99q9 11 16.5 15t20.5 4h101q9 0 14 -5.5t5 -14.5q0 -7 -5 -12l-125 -102q-9 -7 -16.5 -10t-18.5 -3h-63q-16 0 -16 16z" />
    <glyph glyph-name="Lcommaaccent" unicode="&#x13b;" horiz-adv-x="581" 
d="M85 7q-7 7 -7 17v652q0 11 7 17.5t17 6.5h94q11 0 17.5 -6.5t6.5 -17.5v-556h317q11 0 18 -7t7 -17v-72q0 -10 -7 -17t-18 -7h-435q-10 0 -17 7zM220 -220.5q-5 6.5 -4 15.5l19 123q2 14 10 23t22 9h90q7 0 12.5 -5.5t5.5 -13.5q0 -6 -3 -13l-46 -119q-6 -12 -13.5 -19
t-20.5 -7h-58q-9 0 -14 6.5z" />
    <glyph glyph-name="lcommaaccent" unicode="&#x13c;" horiz-adv-x="266" 
d="M74 7q-7 7 -7 17v662q0 11 7 17.5t17 6.5h84q11 0 17.5 -6.5t6.5 -17.5v-662q0 -10 -6.5 -17t-17.5 -7h-84q-10 0 -17 7zM46 -220.5q-5 6.5 -4 15.5l19 123q2 14 10 23t22 9h85q7 0 12.5 -5.5t5.5 -13.5q0 -6 -3 -13l-46 -119q-6 -12 -13 -19t-20 -7h-55q-8 0 -13 6.5z
" />
    <glyph glyph-name="Lcaron" unicode="&#x13d;" horiz-adv-x="581" 
d="M85 7q-7 7 -7 17v652q0 11 7 17.5t17 6.5h94q11 0 17.5 -6.5t6.5 -17.5v-556h317q11 0 18 -7t7 -17v-72q0 -10 -7 -17t-18 -7h-435q-10 0 -17 7zM310 539.5q-5 6.5 -4 15.5l19 123q2 14 10 23t22 9h90q7 0 12.5 -5.5t5.5 -13.5q0 -6 -3 -13l-46 -119q-6 -12 -13.5 -19
t-20.5 -7h-58q-9 0 -14 6.5z" />
    <glyph glyph-name="lcaron" unicode="&#x13e;" horiz-adv-x="343" 
d="M74 7q-7 7 -7 17v662q0 11 7 17.5t17 6.5h84q11 0 17.5 -6.5t6.5 -17.5v-662q0 -10 -6.5 -17t-17.5 -7h-84q-10 0 -17 7zM256 539.5q-5 6.5 -4 15.5l19 123q2 14 10 23t22 9h85q7 0 12.5 -5.5t5.5 -13.5q0 -6 -3 -13l-46 -119q-6 -12 -13 -19t-20 -7h-55q-8 0 -13 6.5z
" />
    <glyph glyph-name="Ldot" unicode="&#x13f;" horiz-adv-x="581" 
d="M85 7q-7 7 -7 17v652q0 11 7 17.5t17 6.5h94q11 0 17.5 -6.5t6.5 -17.5v-556h317q11 0 18 -7t7 -17v-72q0 -10 -7 -17t-18 -7h-435q-10 0 -17 7zM322 318q-6 6 -6 16v83q0 10 6 16.5t16 6.5h83q10 0 16.5 -6.5t6.5 -16.5v-83q0 -10 -6.5 -16t-16.5 -6h-83q-10 0 -16 6z
" />
    <glyph glyph-name="ldot" unicode="&#x140;" horiz-adv-x="360" 
d="M74 7q-7 7 -7 17v662q0 11 7 17.5t17 6.5h84q11 0 17.5 -6.5t6.5 -17.5v-662q0 -10 -6.5 -17t-17.5 -7h-84q-10 0 -17 7zM256 302q-6 6 -6 16v83q0 10 6 16.5t16 6.5h83q10 0 16.5 -6.5t6.5 -16.5v-83q0 -10 -6.5 -16t-16.5 -6h-83q-10 0 -16 6z" />
    <glyph glyph-name="Lslash" unicode="&#x141;" horiz-adv-x="589" 
d="M93 7q-7 7 -7 17v240l-42 -16q-8 -3 -12 -3q-8 0 -14 5.5t-6 14.5v56q0 12 5 17.5t17 10.5l52 20v307q0 11 7 17.5t17 6.5h94q11 0 17.5 -6.5t6.5 -17.5v-251l145 56q8 3 13 3q8 0 13.5 -5t5.5 -14v-56q0 -12 -5 -17.5t-17 -10.5l-155 -61v-200h318q10 0 17 -7t7 -17v-72
q0 -10 -7 -17t-17 -7h-436q-10 0 -17 7z" />
    <glyph glyph-name="lslash" unicode="&#x142;" horiz-adv-x="311" 
d="M97 7q-7 7 -7 17v257l-34 -13q-7 -3 -12 -3q-9 0 -14.5 5t-5.5 14v57q0 12 5 17.5t17 10.5l44 16v301q0 11 7 17.5t17 6.5h84q11 0 18 -7t7 -17v-249l33 13q7 3 13 3q8 0 13.5 -5t5.5 -14v-56q0 -12 -5 -18t-17 -11l-43 -17v-308q0 -10 -7 -17t-18 -7h-84q-10 0 -17 7z
" />
    <glyph glyph-name="Nacute" unicode="&#x143;" horiz-adv-x="707" 
d="M85 7q-7 7 -7 17v651q0 11 6.5 18t17.5 7h78q19 0 29 -17l286 -444v436q0 11 6.5 18t17.5 7h86q11 0 18 -7t7 -18v-650q0 -11 -7 -18t-17 -7h-79q-20 0 -30 17l-285 434v-427q0 -10 -6.5 -17t-17.5 -7h-86q-10 0 -17 7zM292 766q0 8 5 13l82 99q9 11 16.5 15t20.5 4h108
q9 0 14 -5.5t5 -14.5q0 -7 -5 -12l-125 -102q-9 -7 -16.5 -10t-18.5 -3h-70q-16 0 -16 16z" />
    <glyph glyph-name="nacute" unicode="&#x144;" horiz-adv-x="625" 
d="M73 7q-7 7 -7 17v472q0 11 7 17.5t17 6.5h83q11 0 17.5 -6.5t6.5 -17.5v-41q61 75 167 75q92 0 146 -60t54 -165v-281q0 -10 -6.5 -17t-17.5 -7h-90q-10 0 -17 7t-7 17v275q0 58 -28.5 90.5t-81.5 32.5q-51 0 -82 -33t-31 -90v-275q0 -10 -6.5 -17t-17.5 -7h-89
q-10 0 -17 7zM253 611q0 8 5 13l82 99q9 11 16.5 15t20.5 4h101q9 0 14 -5.5t5 -14.5q0 -7 -5 -12l-125 -102q-9 -7 -16.5 -10t-18.5 -3h-63q-16 0 -16 16z" />
    <glyph glyph-name="Ncommaaccent" unicode="&#x145;" horiz-adv-x="707" 
d="M85 7q-7 7 -7 17v651q0 11 6.5 18t17.5 7h78q19 0 29 -17l286 -444v436q0 11 6.5 18t17.5 7h86q11 0 18 -7t7 -18v-650q0 -11 -7 -18t-17 -7h-79q-20 0 -30 17l-285 434v-427q0 -10 -6.5 -17t-17.5 -7h-86q-10 0 -17 7zM268 -220.5q-5 6.5 -4 15.5l19 123q2 14 10 23
t22 9h90q7 0 12.5 -5.5t5.5 -13.5q0 -6 -3 -13l-46 -119q-6 -12 -13.5 -19t-20.5 -7h-58q-9 0 -14 6.5z" />
    <glyph glyph-name="ncommaaccent" unicode="&#x146;" horiz-adv-x="625" 
d="M73 7q-7 7 -7 17v472q0 11 7 17.5t17 6.5h83q11 0 17.5 -6.5t6.5 -17.5v-41q61 75 167 75q92 0 146 -60t54 -165v-281q0 -10 -6.5 -17t-17.5 -7h-90q-10 0 -17 7t-7 17v275q0 58 -28.5 90.5t-81.5 32.5q-51 0 -82 -33t-31 -90v-275q0 -10 -6.5 -17t-17.5 -7h-89
q-10 0 -17 7zM233 -220.5q-5 6.5 -4 15.5l19 123q2 14 10 23t22 9h85q7 0 12.5 -5.5t5.5 -13.5q0 -6 -3 -13l-46 -119q-6 -12 -13 -19t-20 -7h-55q-8 0 -13 6.5z" />
    <glyph glyph-name="Ncaron" unicode="&#x147;" horiz-adv-x="707" 
d="M85 7q-7 7 -7 17v651q0 11 6.5 18t17.5 7h78q19 0 29 -17l286 -444v436q0 11 6.5 18t17.5 7h86q11 0 18 -7t7 -18v-650q0 -11 -7 -18t-17 -7h-79q-20 0 -30 17l-285 434v-427q0 -10 -6.5 -17t-17.5 -7h-86q-10 0 -17 7zM306.5 753q-7.5 3 -16.5 13l-98 101q-9 8 -9 17
q0 13 15 13h40q18 0 31 -7l85 -53l85 53q13 7 31 7h40q14 0 14 -13q0 -9 -9 -17l-97 -101q-10 -10 -17 -13t-17 -3h-60q-10 0 -17.5 3z" />
    <glyph glyph-name="ncaron" unicode="&#x148;" horiz-adv-x="625" 
d="M73 7q-7 7 -7 17v472q0 11 7 17.5t17 6.5h83q11 0 17.5 -6.5t6.5 -17.5v-41q61 75 167 75q92 0 146 -60t54 -165v-281q0 -10 -6.5 -17t-17.5 -7h-90q-10 0 -17 7t-7 17v275q0 58 -28.5 90.5t-81.5 32.5q-51 0 -82 -33t-31 -90v-275q0 -10 -6.5 -17t-17.5 -7h-89
q-10 0 -17 7zM269 598q-7 3 -17 13l-97 101q-9 8 -9 17q0 13 15 13h37q18 0 31 -7l85 -53l85 53q13 7 31 7h38q15 0 15 -13q0 -9 -9 -17l-98 -101q-9 -10 -16.5 -13t-17.5 -3h-56q-10 0 -17 3z" />
    <glyph glyph-name="napostrophe" unicode="&#x149;" horiz-adv-x="625" 
d="M73 7q-7 7 -7 17v472q0 11 7 17.5t17 6.5h83q11 0 17.5 -6.5t6.5 -17.5v-41q61 75 167 75q92 0 146 -60t54 -165v-281q0 -10 -6.5 -17t-17.5 -7h-90q-10 0 -17 7t-7 17v275q0 58 -28.5 90.5t-81.5 32.5q-51 0 -82 -33t-31 -90v-275q0 -10 -6.5 -17t-17.5 -7h-89
q-10 0 -17 7zM91 593.5q-5 6.5 -4 15.5l19 123q2 14 10 23t22 9h85q7 0 12.5 -5.5t5.5 -13.5q0 -6 -3 -13l-46 -119q-6 -12 -13 -19t-20 -7h-55q-8 0 -13 6.5z" />
    <glyph glyph-name="Eng" unicode="&#x14a;" horiz-adv-x="707" 
d="M380 -218.5q-7 6.5 -7 17.5v72q0 10 7 17t17 7h19q44 0 61.5 23t17.5 64v39l-283 430v-427q0 -10 -6.5 -17t-17.5 -7h-86q-10 0 -17 7t-7 17v651q0 11 6.5 18t17.5 7h78q19 0 29 -17l286 -444v436q0 11 6.5 18t17.5 7h86q11 0 18 -7t7 -18v-697q0 -97 -57 -150t-167 -53
h-9q-10 0 -17 6.5z" />
    <glyph glyph-name="eng" unicode="&#x14b;" horiz-adv-x="625" 
d="M310 -218q-7 7 -7 17v70q0 10 7 17t17 7h19q46 0 63 24t17 74v308q0 58 -28.5 90.5t-81.5 32.5q-51 0 -82 -33t-31 -90v-275q0 -10 -6.5 -17t-17.5 -7h-89q-10 0 -17 7t-7 17v472q0 11 7 17.5t17 6.5h83q11 0 17.5 -6.5t6.5 -17.5v-41q61 75 167 75q92 0 146 -60t54 -165
v-318q0 -102 -56.5 -157t-165.5 -55h-15q-10 0 -17 7z" />
    <glyph glyph-name="Omacron" unicode="&#x14c;" horiz-adv-x="695" 
d="M135 59q-76 69 -80 205q-1 29 -1 85q0 57 1 86q4 133 82 204t211 71q132 0 210.5 -71t82.5 -204q2 -58 2 -86q0 -27 -2 -85q-4 -136 -80.5 -205t-212.5 -69q-137 0 -213 69zM454 146q39 40 42 123q2 60 2 81q0 23 -2 81q-3 82 -43 122.5t-105 40.5q-66 0 -106 -40.5
t-42 -122.5q-1 -29 -1 -81q0 -51 1 -81q2 -82 41.5 -122.5t106.5 -40.5t106 40zM195 756q-6 6 -6 16v57q0 10 6 16t16 6h273q10 0 16.5 -6t6.5 -16v-57q0 -10 -6.5 -16t-16.5 -6h-273q-10 0 -16 6z" />
    <glyph glyph-name="omacron" unicode="&#x14d;" horiz-adv-x="593" 
d="M115 50q-64 60 -69 166l-1 44l1 44q5 105 70 165.5t181 60.5q115 0 180 -60.5t70 -165.5q1 -12 1 -44t-1 -44q-5 -106 -69 -166t-181 -60q-118 0 -182 60zM378.5 124q28.5 33 30.5 97q1 10 1 39t-1 39q-2 64 -31 97.5t-81 33.5q-53 0 -82 -33.5t-31 -97.5l-1 -39l1 -39
q2 -64 31 -97t82 -33t81.5 33zM155 617q-6 6 -6 16v52q0 10 6 16t16 6h252q10 0 16.5 -6t6.5 -16v-52q0 -10 -6.5 -16t-16.5 -6h-252q-10 0 -16 6z" />
    <glyph glyph-name="Obreve" unicode="&#x14e;" horiz-adv-x="695" 
d="M135 59q-76 69 -80 205q-1 29 -1 85q0 57 1 86q4 133 82 204t211 71q132 0 210.5 -71t82.5 -204q2 -58 2 -86q0 -27 -2 -85q-4 -136 -80.5 -205t-212.5 -69q-137 0 -213 69zM454 146q39 40 42 123q2 60 2 81q0 23 -2 81q-3 82 -43 122.5t-105 40.5q-66 0 -106 -40.5
t-42 -122.5q-1 -29 -1 -81q0 -51 1 -81q2 -82 41.5 -122.5t106.5 -40.5t106 40zM241 779q-34 37 -34 96q0 8 5 13.5t14 5.5h50q9 0 14 -5.5t5 -13.5q0 -27 12 -44.5t41 -17.5q28 0 40 17.5t12 44.5q0 8 5 13.5t14 5.5h50q9 0 14 -5.5t5 -13.5q0 -59 -34 -96t-106 -37
q-73 0 -107 37z" />
    <glyph glyph-name="obreve" unicode="&#x14f;" horiz-adv-x="593" 
d="M115 50q-64 60 -69 166l-1 44l1 44q5 105 70 165.5t181 60.5q115 0 180 -60.5t70 -165.5q1 -12 1 -44t-1 -44q-5 -106 -69 -166t-181 -60q-118 0 -182 60zM378.5 124q28.5 33 30.5 97q1 10 1 39t-1 39q-2 64 -31 97.5t-81 33.5q-53 0 -82 -33.5t-31 -97.5l-1 -39l1 -39
q2 -64 31 -97t82 -33t81.5 33zM194.5 627.5q-33.5 37.5 -33.5 95.5q0 8 5 13.5t14 5.5h48q9 0 14 -5.5t5 -13.5q0 -62 49 -62q50 0 50 62q0 8 5 13.5t14 5.5h48q9 0 14 -5.5t5 -13.5q0 -58 -33.5 -95.5t-102.5 -37.5q-68 0 -101.5 37.5z" />
    <glyph glyph-name="Ohungarumlaut" unicode="&#x150;" horiz-adv-x="695" 
d="M135 59q-76 69 -80 205q-1 29 -1 85q0 57 1 86q4 133 82 204t211 71q132 0 210.5 -71t82.5 -204q2 -58 2 -86q0 -27 -2 -85q-4 -136 -80.5 -205t-212.5 -69q-137 0 -213 69zM454 146q39 40 42 123q2 60 2 81q0 23 -2 81q-3 82 -43 122.5t-105 40.5q-66 0 -106 -40.5
t-42 -122.5q-1 -29 -1 -81q0 -51 1 -81q2 -82 41.5 -122.5t106.5 -40.5t106 40zM209 766q0 5 5 15l43 97q5 10 13.5 14.5t23.5 4.5h89q9 0 14.5 -5t5.5 -14q0 -8 -6 -13l-89 -101q-12 -14 -32 -14h-51q-16 0 -16 16zM397 766q0 5 5 15l44 97q5 10 13.5 14.5t23.5 4.5h88
q9 0 14.5 -5t5.5 -14q0 -8 -6 -13l-89 -101q-12 -14 -31 -14h-52q-16 0 -16 16z" />
    <glyph glyph-name="ohungarumlaut" unicode="&#x151;" horiz-adv-x="593" 
d="M115 50q-64 60 -69 166l-1 44l1 44q5 105 70 165.5t181 60.5q115 0 180 -60.5t70 -165.5q1 -12 1 -44t-1 -44q-5 -106 -69 -166t-181 -60q-118 0 -182 60zM378.5 124q28.5 33 30.5 97q1 10 1 39t-1 39q-2 64 -31 97.5t-81 33.5q-53 0 -82 -33.5t-31 -97.5l-1 -39l1 -39
q2 -64 31 -97t82 -33t81.5 33zM148 611q0 5 5 15l43 97q5 10 13.5 14.5t23.5 4.5h82q9 0 14.5 -5t5.5 -14q0 -7 -6 -13l-89 -101q-12 -14 -32 -14h-44q-16 0 -16 16zM338 611q0 5 5 15l43 97q5 10 13.5 14.5t23.5 4.5h82q9 0 14.5 -5t5.5 -14q0 -7 -6 -13l-89 -101
q-12 -14 -32 -14h-44q-16 0 -16 16z" />
    <glyph glyph-name="OE" unicode="&#x152;" horiz-adv-x="943" 
d="M131.5 66.5q-71.5 66.5 -76.5 206.5l-1 77l1 78q8 272 302 272h506q11 0 17.5 -7t6.5 -18v-67q0 -10 -6.5 -17t-17.5 -7h-297v-175h275q11 0 17.5 -7t6.5 -18v-63q0 -10 -6.5 -17t-17.5 -7h-275v-181h305q11 0 17.5 -6.5t6.5 -17.5v-68q0 -10 -6.5 -17t-17.5 -7h-519
q-149 0 -220.5 66.5zM429 116v468h-67q-84 0 -123 -38.5t-41 -120.5q-1 -29 -1 -74t1 -75q2 -86 39 -123t120 -37h72z" />
    <glyph glyph-name="oe" unicode="&#x153;" horiz-adv-x="944" 
d="M115.5 50.5q-63.5 60.5 -68.5 165.5q-1 12 -1 44t1 44q5 105 70 165.5t180 60.5q61 0 108 -21t77 -59q64 80 176 80q119 0 183.5 -72t64.5 -192v-21q0 -10 -7 -17t-18 -7h-332v-8q2 -56 30.5 -92.5t78.5 -36.5q54 0 90 46q9 11 14 13.5t17 2.5h88q9 0 15.5 -5t6.5 -14
q0 -24 -28 -56.5t-80.5 -56.5t-121.5 -24q-57 0 -102 20.5t-76 57.5q-29 -37 -75.5 -57.5t-108.5 -20.5q-118 0 -181.5 60.5zM768 306v2q0 59 -29.5 94.5t-80.5 35.5t-80 -35.5t-29 -94.5v-2h219zM378.5 124q28.5 33 31.5 97q1 10 1 39t-1 39q-3 64 -32 97.5t-81 33.5
t-81 -33.5t-32 -97.5l-1 -39l1 -39q3 -64 31.5 -97t81.5 -33t81.5 33z" />
    <glyph glyph-name="Racute" unicode="&#x154;" horiz-adv-x="674" 
d="M85 7q-7 7 -7 17v651q0 11 6.5 18t17.5 7h259q123 0 192.5 -57t69.5 -162q0 -73 -35 -122.5t-98 -71.5l145 -255q3 -6 3 -11q0 -9 -6.5 -15t-14.5 -6h-92q-16 0 -25 7.5t-16 19.5l-128 237h-137v-240q0 -10 -7 -17t-18 -7h-92q-10 0 -17 7zM358 378q60 0 90 26.5t30 77.5
t-30 78.5t-90 27.5h-139v-210h139zM255 766q0 8 5 13l82 99q9 11 16.5 15t20.5 4h108q9 0 14 -5.5t5 -14.5q0 -7 -5 -12l-125 -102q-9 -7 -16.5 -10t-18.5 -3h-70q-16 0 -16 16z" />
    <glyph glyph-name="racute" unicode="&#x155;" horiz-adv-x="419" 
d="M73 7q-7 7 -7 17v471q0 11 7 18t17 7h82q11 0 18 -7t7 -18v-41q50 66 144 66h42q11 0 17.5 -6.5t6.5 -17.5v-73q0 -10 -6.5 -17t-17.5 -7h-79q-47 0 -74 -27t-27 -74v-274q0 -10 -7 -17t-17 -7h-89q-10 0 -17 7zM167 611q0 8 5 13l82 99q9 11 16.5 15t20.5 4h101
q9 0 14 -5.5t5 -14.5q0 -7 -5 -12l-125 -102q-9 -7 -16.5 -10t-18.5 -3h-63q-16 0 -16 16z" />
    <glyph glyph-name="Rcommaaccent" unicode="&#x156;" horiz-adv-x="674" 
d="M85 7q-7 7 -7 17v651q0 11 6.5 18t17.5 7h259q123 0 192.5 -57t69.5 -162q0 -73 -35 -122.5t-98 -71.5l145 -255q3 -6 3 -11q0 -9 -6.5 -15t-14.5 -6h-92q-16 0 -25 7.5t-16 19.5l-128 237h-137v-240q0 -10 -7 -17t-18 -7h-92q-10 0 -17 7zM358 378q60 0 90 26.5t30 77.5
t-30 78.5t-90 27.5h-139v-210h139zM253 -220.5q-5 6.5 -4 15.5l19 123q2 14 10 23t22 9h90q7 0 12.5 -5.5t5.5 -13.5q0 -6 -3 -13l-46 -119q-6 -12 -13.5 -19t-20.5 -7h-58q-9 0 -14 6.5z" />
    <glyph glyph-name="rcommaaccent" unicode="&#x157;" horiz-adv-x="419" 
d="M73 7q-7 7 -7 17v471q0 11 7 18t17 7h82q11 0 18 -7t7 -18v-41q50 66 144 66h42q11 0 17.5 -6.5t6.5 -17.5v-73q0 -10 -6.5 -17t-17.5 -7h-79q-47 0 -74 -27t-27 -74v-274q0 -10 -7 -17t-17 -7h-89q-10 0 -17 7zM43 -220.5q-5 6.5 -4 15.5l19 123q2 14 10 23t22 9h85
q7 0 12.5 -5.5t5.5 -13.5q0 -6 -3 -13l-46 -119q-6 -12 -13 -19t-20 -7h-55q-8 0 -13 6.5z" />
    <glyph glyph-name="Rcaron" unicode="&#x158;" horiz-adv-x="674" 
d="M85 7q-7 7 -7 17v651q0 11 6.5 18t17.5 7h259q123 0 192.5 -57t69.5 -162q0 -73 -35 -122.5t-98 -71.5l145 -255q3 -6 3 -11q0 -9 -6.5 -15t-14.5 -6h-92q-16 0 -25 7.5t-16 19.5l-128 237h-137v-240q0 -10 -7 -17t-18 -7h-92q-10 0 -17 7zM358 378q60 0 90 26.5t30 77.5
t-30 78.5t-90 27.5h-139v-210h139zM269.5 753q-7.5 3 -16.5 13l-98 101q-9 8 -9 17q0 13 15 13h40q18 0 31 -7l85 -53l85 53q13 7 31 7h40q14 0 14 -13q0 -9 -9 -17l-97 -101q-10 -10 -17 -13t-17 -3h-60q-10 0 -17.5 3z" />
    <glyph glyph-name="rcaron" unicode="&#x159;" horiz-adv-x="419" 
d="M73 7q-7 7 -7 17v471q0 11 7 18t17 7h82q11 0 18 -7t7 -18v-41q50 66 144 66h42q11 0 17.5 -6.5t6.5 -17.5v-73q0 -10 -6.5 -17t-17.5 -7h-79q-47 0 -74 -27t-27 -74v-274q0 -10 -7 -17t-17 -7h-89q-10 0 -17 7zM178 598q-7 3 -17 13l-97 101q-9 8 -9 17q0 13 15 13h37
q18 0 31 -7l85 -53l85 53q13 7 31 7h38q15 0 15 -13q0 -9 -9 -17l-98 -101q-9 -10 -16.5 -13t-17.5 -3h-56q-10 0 -17 3z" />
    <glyph glyph-name="Sacute" unicode="&#x15a;" horiz-adv-x="643" 
d="M168 17q-64 27 -97 71t-35 96q0 8 6 14.5t15 6.5h91q11 0 18 -5t13 -14q10 -34 45.5 -57t97.5 -23q70 0 105.5 23.5t35.5 64.5q0 27 -18 45t-54.5 31.5t-108.5 32.5q-118 28 -173 74t-55 132q0 58 32 103.5t91.5 71.5t138.5 26q83 0 143.5 -29t92 -72.5t33.5 -86.5
q0 -8 -6 -14.5t-15 -6.5h-95q-22 0 -30 18q-5 32 -39 53.5t-84 21.5q-55 0 -86.5 -21t-31.5 -61q0 -27 16 -45t50 -31.5t99 -30.5q89 -20 141.5 -45t77.5 -63t25 -97q0 -65 -35.5 -112.5t-100 -72.5t-149.5 -25q-90 0 -154 27zM260 766q0 8 5 13l82 99q9 11 16.5 15t20.5 4
h108q9 0 14 -5.5t5 -14.5q0 -7 -5 -12l-125 -102q-9 -7 -16.5 -10t-18.5 -3h-70q-16 0 -16 16z" />
    <glyph glyph-name="sacute" unicode="&#x15b;" horiz-adv-x="533" 
d="M137 13q-51 23 -75.5 53.5t-24.5 52.5q0 10 6.5 16t15.5 6h82q8 0 14 -8q5 -4 22.5 -19t40 -23.5t49.5 -8.5q40 0 65 15.5t25 44.5q0 20 -11.5 32.5t-41 23t-88.5 23.5q-85 18 -125.5 55t-40.5 98q0 40 24 75.5t71.5 58t113.5 22.5q68 0 117 -21.5t74.5 -51.5t25.5 -53
q0 -9 -6.5 -15.5t-15.5 -6.5h-75q-11 0 -17 8q-7 5 -22.5 18.5t-34.5 21.5t-46 8q-37 0 -57 -16t-20 -42q0 -18 9.5 -30t38.5 -22.5t87 -21.5q180 -35 180 -157q0 -71 -61.5 -115t-171.5 -44q-76 0 -127 23zM196 611q0 8 5 13l82 99q9 11 16.5 15t20.5 4h101q9 0 14 -5.5
t5 -14.5q0 -7 -5 -12l-125 -102q-9 -7 -16.5 -10t-18.5 -3h-63q-16 0 -16 16z" />
    <glyph glyph-name="Scircumflex" unicode="&#x15c;" horiz-adv-x="643" 
d="M168 17q-64 27 -97 71t-35 96q0 8 6 14.5t15 6.5h91q11 0 18 -5t13 -14q10 -34 45.5 -57t97.5 -23q70 0 105.5 23.5t35.5 64.5q0 27 -18 45t-54.5 31.5t-108.5 32.5q-118 28 -173 74t-55 132q0 58 32 103.5t91.5 71.5t138.5 26q83 0 143.5 -29t92 -72.5t33.5 -86.5
q0 -8 -6 -14.5t-15 -6.5h-95q-22 0 -30 18q-5 32 -39 53.5t-84 21.5q-55 0 -86.5 -21t-31.5 -61q0 -27 16 -45t50 -31.5t99 -30.5q89 -20 141.5 -45t77.5 -63t25 -97q0 -65 -35.5 -112.5t-100 -72.5t-149.5 -25q-90 0 -154 27zM151 763q0 8 9 17l98 101q9 10 16.5 13t17.5 3
h60q10 0 17 -3t17 -13l97 -101q9 -9 9 -17q0 -13 -14 -13h-40q-18 0 -31 7l-85 53l-85 -53q-13 -7 -31 -7h-40q-15 0 -15 13z" />
    <glyph glyph-name="scircumflex" unicode="&#x15d;" horiz-adv-x="533" 
d="M137 13q-51 23 -75.5 53.5t-24.5 52.5q0 10 6.5 16t15.5 6h82q8 0 14 -8q5 -4 22.5 -19t40 -23.5t49.5 -8.5q40 0 65 15.5t25 44.5q0 20 -11.5 32.5t-41 23t-88.5 23.5q-85 18 -125.5 55t-40.5 98q0 40 24 75.5t71.5 58t113.5 22.5q68 0 117 -21.5t74.5 -51.5t25.5 -53
q0 -9 -6.5 -15.5t-15.5 -6.5h-75q-11 0 -17 8q-7 5 -22.5 18.5t-34.5 21.5t-46 8q-37 0 -57 -16t-20 -42q0 -18 9.5 -30t38.5 -22.5t87 -21.5q180 -35 180 -157q0 -71 -61.5 -115t-171.5 -44q-76 0 -127 23zM98 608q0 8 9 17l97 101q10 10 17 13t17 3h56q10 0 17.5 -3
t16.5 -13l98 -101q9 -9 9 -17q0 -13 -15 -13h-38q-18 0 -31 7l-85 53l-85 -53q-13 -7 -31 -7h-37q-15 0 -15 13z" />
    <glyph glyph-name="Scedilla" unicode="&#x15e;" horiz-adv-x="643" 
d="M261 -206q-26 14 -26 28q0 5 4 9l17 15q5 5 10 5t20 -8.5t33 -8.5q16 0 26.5 9.5t10.5 24.5q0 14 -10.5 23t-26.5 9q-10 0 -24.5 -4.5t-19.5 -4.5q-7 0 -13 6l-18 19q-4 5 -4 11q0 8 6 20l20 47q-72 8 -124 35.5t-78.5 68t-27.5 86.5q0 8 6 14.5t15 6.5h91q11 0 18 -5
t13 -14q10 -34 45.5 -57t97.5 -23q70 0 105.5 23.5t35.5 64.5q0 27 -18 45t-54.5 31.5t-108.5 32.5q-118 28 -173 74t-55 132q0 58 32 103.5t91.5 71.5t138.5 26q83 0 143.5 -29t92 -72.5t33.5 -86.5q0 -8 -6 -14.5t-15 -6.5h-95q-22 0 -30 18q-5 32 -39 53.5t-84 21.5
q-55 0 -86.5 -21t-31.5 -61q0 -27 16 -45t50 -31.5t99 -30.5q89 -20 141.5 -45t77.5 -63t25 -97q0 -64 -35.5 -111.5t-99.5 -72.5t-148 -26l-21 -43q11 7 34 7q35 0 56.5 -23.5t21.5 -61.5t-25 -63.5t-69 -25.5q-34 0 -60 14z" />
    <glyph glyph-name="scedilla" unicode="&#x15f;" horiz-adv-x="533" 
d="M204 -206q-26 14 -26 28q0 5 4 9l17 15q5 5 10 5q4 0 19 -8.5t34 -8.5q16 0 26.5 9.5t10.5 24.5q0 14 -10.5 23t-26.5 9q-10 0 -24.5 -4.5t-19.5 -4.5q-7 0 -13 6l-18 19q-4 5 -4 11q0 8 6 20l20 47q-56 8 -95 30t-57.5 48t-19.5 45q-1 11 6 17.5t16 6.5h78q9 0 17 -8
q6 -5 23.5 -19.5t39.5 -23t50 -8.5q40 0 65 15.5t25 44.5q0 20 -11.5 32.5t-41 23t-88.5 23.5q-85 18 -125.5 55t-40.5 98q0 40 24 75.5t71.5 58t113.5 22.5q68 0 117 -21.5t74.5 -51.5t25.5 -53q0 -9 -6.5 -15.5t-15.5 -6.5h-76q-10 0 -16 8q-7 5 -22.5 18.5t-34.5 21.5
t-46 8q-37 0 -57 -16t-20 -42q0 -18 9.5 -30t38.5 -22.5t87 -21.5q180 -35 180 -157q0 -70 -60.5 -114t-170.5 -45l-20 -43q10 7 34 7q35 0 56.5 -23.5t21.5 -61.5t-25 -63.5t-69 -25.5q-34 0 -60 14z" />
    <glyph glyph-name="Scaron" unicode="&#x160;" horiz-adv-x="643" 
d="M168 17q-64 27 -97 71t-35 96q0 8 6 14.5t15 6.5h91q11 0 18 -5t13 -14q10 -34 45.5 -57t97.5 -23q70 0 105.5 23.5t35.5 64.5q0 27 -18 45t-54.5 31.5t-108.5 32.5q-118 28 -173 74t-55 132q0 58 32 103.5t91.5 71.5t138.5 26q83 0 143.5 -29t92 -72.5t33.5 -86.5
q0 -8 -6 -14.5t-15 -6.5h-95q-22 0 -30 18q-5 32 -39 53.5t-84 21.5q-55 0 -86.5 -21t-31.5 -61q0 -27 16 -45t50 -31.5t99 -30.5q89 -20 141.5 -45t77.5 -63t25 -97q0 -65 -35.5 -112.5t-100 -72.5t-149.5 -25q-90 0 -154 27zM274.5 753q-7.5 3 -16.5 13l-98 101
q-9 8 -9 17q0 13 15 13h40q18 0 31 -7l85 -53l85 53q13 7 31 7h40q14 0 14 -13q0 -9 -9 -17l-97 -101q-10 -10 -17 -13t-17 -3h-60q-10 0 -17.5 3z" />
    <glyph glyph-name="scaron" unicode="&#x161;" horiz-adv-x="533" 
d="M137 13q-51 23 -75.5 53.5t-24.5 52.5q0 10 6.5 16t15.5 6h82q8 0 14 -8q5 -4 22.5 -19t40 -23.5t49.5 -8.5q40 0 65 15.5t25 44.5q0 20 -11.5 32.5t-41 23t-88.5 23.5q-85 18 -125.5 55t-40.5 98q0 40 24 75.5t71.5 58t113.5 22.5q68 0 117 -21.5t74.5 -51.5t25.5 -53
q0 -9 -6.5 -15.5t-15.5 -6.5h-75q-11 0 -17 8q-7 5 -22.5 18.5t-34.5 21.5t-46 8q-37 0 -57 -16t-20 -42q0 -18 9.5 -30t38.5 -22.5t87 -21.5q180 -35 180 -157q0 -71 -61.5 -115t-171.5 -44q-76 0 -127 23zM221 598q-7 3 -17 13l-97 101q-9 8 -9 17q0 13 15 13h37
q18 0 31 -7l85 -53l85 53q13 7 31 7h38q15 0 15 -13q0 -9 -9 -17l-98 -101q-9 -10 -16.5 -13t-17.5 -3h-56q-10 0 -17 3z" />
    <glyph glyph-name="Tcaron" unicode="&#x164;" horiz-adv-x="606" 
d="M239 7q-7 7 -7 17v551h-185q-10 0 -17 7t-7 18v75q0 11 6.5 18t17.5 7h511q11 0 18 -7t7 -18v-75q0 -11 -7 -18t-18 -7h-184v-551q0 -10 -6.5 -17t-17.5 -7h-94q-10 0 -17 7zM255.5 753q-7.5 3 -16.5 13l-98 101q-9 8 -9 17q0 13 15 13h40q18 0 31 -7l85 -53l85 53
q13 7 31 7h40q14 0 14 -13q0 -9 -9 -17l-97 -101q-10 -10 -17 -13t-17 -3h-60q-10 0 -17.5 3z" />
    <glyph glyph-name="tcaron" unicode="&#x165;" horiz-adv-x="408" 
d="M165 47.5q-46 47.5 -46 139.5v226h-79q-10 0 -17 7t-7 17v59q0 10 7 17t17 7h79v166q0 11 7 17.5t17 6.5h83q11 0 17.5 -6.5t6.5 -17.5v-166h125q10 0 17 -7t7 -17v-59q0 -10 -7 -17t-17 -7h-125v-215q0 -43 15 -65t49 -22h70q11 0 17.5 -6.5t6.5 -17.5v-63
q0 -10 -6.5 -17t-17.5 -7h-82q-91 0 -137 47.5zM330 616.5q-5 6.5 -4 15.5l19 123q2 14 10 23t22 9h85q7 0 12.5 -5.5t5.5 -13.5q0 -6 -3 -13l-46 -119q-6 -12 -13 -19t-20 -7h-55q-8 0 -13 6.5z" />
    <glyph glyph-name="Tbar" unicode="&#x166;" horiz-adv-x="615" 
d="M243 7q-7 7 -7 17v288h-106q-10 0 -17 7t-7 17v38q0 11 6.5 18t17.5 7h106v176h-184q-10 0 -17.5 7.5t-7.5 17.5v75q0 11 7 18t18 7h511q11 0 18 -7t7 -18v-75q0 -10 -7 -17.5t-18 -7.5h-184v-176h106q11 0 17.5 -7t6.5 -18v-38q0 -10 -6.5 -17t-17.5 -7h-106v-288
q0 -11 -7 -17.5t-18 -6.5h-94q-10 0 -17 7z" />
    <glyph glyph-name="tbar" unicode="&#x167;" horiz-adv-x="436" 
d="M168.5 47.5q-46.5 47.5 -46.5 139.5v101h-78q-10 0 -17 7t-7 17v29q0 11 7 17.5t17 6.5h78v77h-78q-10 0 -17 7t-7 18v29q0 11 7 17.5t17 6.5h78v166q0 11 7 17.5t17 6.5h83q11 0 17.5 -6.5t6.5 -17.5v-166h125q11 0 17.5 -6.5t6.5 -17.5v-29q0 -11 -7 -18t-17 -7h-125
v-77h125q11 0 17.5 -6.5t6.5 -17.5v-29q0 -10 -6.5 -17t-17.5 -7h-125v-90q0 -43 15 -65t50 -22h69q11 0 17.5 -6.5t6.5 -17.5v-63q0 -10 -6.5 -17t-17.5 -7h-81q-91 0 -137.5 47.5z" />
    <glyph glyph-name="Utilde" unicode="&#x168;" horiz-adv-x="714" 
d="M147 59q-75 69 -75 209v407q0 11 6.5 18t17.5 7h92q11 0 18 -7t7 -18v-407q0 -79 37.5 -119t106.5 -40t106.5 40t37.5 119v407q0 11 7 18t18 7h92q11 0 17.5 -7t6.5 -18v-407q0 -140 -74.5 -209t-209.5 -69q-136 0 -211 69zM380.5 750q-13.5 5 -32.5 15q-14 8 -22.5 11.5
t-18.5 3.5q-9 0 -14 -3.5t-11 -12.5q-8 -14 -19 -14h-47q-7 0 -12 5t-5 12q0 23 11 49t33.5 44t55.5 18q19 0 32.5 -5t32.5 -15q14 -8 22.5 -11.5t18.5 -3.5q9 0 14 4t11 12q5 8 9 11t11 3h46q8 0 13 -5t5 -12q0 -23 -11.5 -49t-34.5 -44t-55 -18q-19 0 -32.5 5z" />
    <glyph glyph-name="utilde" unicode="&#x169;" horiz-adv-x="622" 
d="M114 50q-53 60 -53 165v281q0 11 7 17.5t17 6.5h90q10 0 17 -7t7 -17v-275q0 -123 107 -123q52 0 82.5 33t30.5 90v275q0 11 7 17.5t17 6.5h89q11 0 17.5 -6.5t6.5 -17.5v-472q0 -10 -6.5 -17t-17.5 -7h-83q-10 0 -17 7t-7 17v41q-55 -75 -166 -75q-92 0 -145 60z
M333 595q-13 5 -31 15q-13 8 -21 11.5t-18 3.5q-9 0 -14 -4t-11 -12q-8 -14 -19 -14h-47q-7 0 -12 5t-5 12q0 23 10.5 48t32.5 42.5t55 17.5q19 0 32 -5t31 -15q13 -8 21 -11.5t18 -3.5q9 0 14.5 4t10.5 12q5 7 9 10.5t11 3.5h46q8 0 13 -5t5 -12q0 -23 -11 -48t-33.5 -42.5
t-54.5 -17.5q-19 0 -32 5z" />
    <glyph glyph-name="Umacron" unicode="&#x16a;" horiz-adv-x="714" 
d="M147 59q-75 69 -75 209v407q0 11 6.5 18t17.5 7h92q11 0 18 -7t7 -18v-407q0 -79 37.5 -119t106.5 -40t106.5 40t37.5 119v407q0 11 7 18t18 7h92q11 0 17.5 -7t6.5 -18v-407q0 -140 -74.5 -209t-209.5 -69q-136 0 -211 69zM204 756q-6 6 -6 16v57q0 10 6 16t16 6h273
q10 0 16.5 -6t6.5 -16v-57q0 -10 -6.5 -16t-16.5 -6h-273q-10 0 -16 6z" />
    <glyph glyph-name="umacron" unicode="&#x16b;" horiz-adv-x="622" 
d="M114 50q-53 60 -53 165v281q0 11 7 17.5t17 6.5h90q10 0 17 -7t7 -17v-275q0 -123 107 -123q52 0 82.5 33t30.5 90v275q0 11 7 17.5t17 6.5h89q11 0 17.5 -6.5t6.5 -17.5v-472q0 -10 -6.5 -17t-17.5 -7h-83q-10 0 -17 7t-7 17v41q-55 -75 -166 -75q-92 0 -145 60z
M167 617q-6 6 -6 16v52q0 10 6 16t16 6h252q10 0 16.5 -6t6.5 -16v-52q0 -10 -6.5 -16t-16.5 -6h-252q-10 0 -16 6z" />
    <glyph glyph-name="Ubreve" unicode="&#x16c;" horiz-adv-x="714" 
d="M147 59q-75 69 -75 209v407q0 11 6.5 18t17.5 7h92q11 0 18 -7t7 -18v-407q0 -79 37.5 -119t106.5 -40t106.5 40t37.5 119v407q0 11 7 18t18 7h92q11 0 17.5 -7t6.5 -18v-407q0 -140 -74.5 -209t-209.5 -69q-136 0 -211 69zM250 779q-34 37 -34 96q0 8 5 13.5t14 5.5h50
q9 0 14 -5.5t5 -13.5q0 -27 12 -44.5t41 -17.5q28 0 40 17.5t12 44.5q0 8 5 13.5t14 5.5h50q9 0 14 -5.5t5 -13.5q0 -59 -34 -96t-106 -37q-73 0 -107 37z" />
    <glyph glyph-name="ubreve" unicode="&#x16d;" horiz-adv-x="622" 
d="M114 50q-53 60 -53 165v281q0 11 7 17.5t17 6.5h90q10 0 17 -7t7 -17v-275q0 -123 107 -123q52 0 82.5 33t30.5 90v275q0 11 7 17.5t17 6.5h89q11 0 17.5 -6.5t6.5 -17.5v-472q0 -10 -6.5 -17t-17.5 -7h-83q-10 0 -17 7t-7 17v41q-55 -75 -166 -75q-92 0 -145 60z
M206.5 627.5q-33.5 37.5 -33.5 95.5q0 8 5 13.5t14 5.5h48q9 0 14 -5.5t5 -13.5q0 -62 49 -62q50 0 50 62q0 8 5 13.5t14 5.5h48q9 0 14 -5.5t5 -13.5q0 -58 -33.5 -95.5t-102.5 -37.5q-68 0 -101.5 37.5z" />
    <glyph glyph-name="Uring" unicode="&#x16e;" horiz-adv-x="714" 
d="M147 59q-75 69 -75 209v407q0 11 6.5 18t17.5 7h92q11 0 18 -7t7 -18v-407q0 -79 37.5 -119t106.5 -40t106.5 40t37.5 119v407q0 11 7 18t18 7h92q11 0 17.5 -7t6.5 -18v-407q0 -140 -74.5 -209t-209.5 -69q-136 0 -211 69zM294.5 763.5q-25.5 23.5 -25.5 59.5t25.5 60
t62.5 24t62.5 -24t25.5 -60t-25.5 -59.5t-62.5 -23.5t-62.5 23.5zM378.5 801.5q8.5 8.5 8.5 21.5t-8.5 21.5t-21.5 8.5t-21.5 -8.5t-8.5 -21.5t8.5 -21.5t21.5 -8.5t21.5 8.5z" />
    <glyph glyph-name="uring" unicode="&#x16f;" horiz-adv-x="622" 
d="M114 50q-53 60 -53 165v281q0 11 7 17.5t17 6.5h90q10 0 17 -7t7 -17v-275q0 -123 107 -123q52 0 82.5 33t30.5 90v275q0 11 7 17.5t17 6.5h89q11 0 17.5 -6.5t6.5 -17.5v-472q0 -10 -6.5 -17t-17.5 -7h-83q-10 0 -17 7t-7 17v41q-55 -75 -166 -75q-92 0 -145 60z
M245.5 613.5q-25.5 23.5 -25.5 59.5t25.5 60t62.5 24t62.5 -24t25.5 -60t-25.5 -59.5t-62.5 -23.5t-62.5 23.5zM329.5 651.5q8.5 8.5 8.5 21.5t-8.5 21.5t-21.5 8.5t-21.5 -8.5t-8.5 -21.5t8.5 -21.5t21.5 -8.5t21.5 8.5z" />
    <glyph glyph-name="Uhungarumlaut" unicode="&#x170;" horiz-adv-x="714" 
d="M147 59q-75 69 -75 209v407q0 11 6.5 18t17.5 7h92q11 0 18 -7t7 -18v-407q0 -79 37.5 -119t106.5 -40t106.5 40t37.5 119v407q0 11 7 18t18 7h92q11 0 17.5 -7t6.5 -18v-407q0 -140 -74.5 -209t-209.5 -69q-136 0 -211 69zM218 766q0 5 5 15l43 97q5 10 13.5 14.5
t23.5 4.5h89q9 0 14.5 -5t5.5 -14q0 -8 -6 -13l-89 -101q-12 -14 -32 -14h-51q-16 0 -16 16zM406 766q0 5 5 15l44 97q5 10 13.5 14.5t23.5 4.5h88q9 0 14.5 -5t5.5 -14q0 -8 -6 -13l-89 -101q-12 -14 -31 -14h-52q-16 0 -16 16z" />
    <glyph glyph-name="uhungarumlaut" unicode="&#x171;" horiz-adv-x="622" 
d="M114 50q-53 60 -53 165v281q0 11 7 17.5t17 6.5h90q10 0 17 -7t7 -17v-275q0 -123 107 -123q52 0 82.5 33t30.5 90v275q0 11 7 17.5t17 6.5h89q11 0 17.5 -6.5t6.5 -17.5v-472q0 -10 -6.5 -17t-17.5 -7h-83q-10 0 -17 7t-7 17v41q-55 -75 -166 -75q-92 0 -145 60z
M157 611q0 5 5 15l43 97q5 10 13.5 14.5t23.5 4.5h82q9 0 14.5 -5t5.5 -14q0 -7 -6 -13l-89 -101q-12 -14 -32 -14h-44q-16 0 -16 16zM347 611q0 5 5 15l43 97q5 10 13.5 14.5t23.5 4.5h82q9 0 14.5 -5t5.5 -14q0 -7 -6 -13l-89 -101q-12 -14 -32 -14h-44q-16 0 -16 16z" />
    <glyph glyph-name="Uogonek" unicode="&#x172;" horiz-adv-x="714" 
d="M318.5 -178.5q-38.5 41.5 -38.5 110.5q0 36 11 63q-105 15 -162 83t-57 190v407q0 11 6.5 18t17.5 7h92q11 0 18 -7t7 -18v-407q0 -79 37.5 -119t106.5 -40t106.5 40t37.5 119v407q0 11 7 18t18 7h92q11 0 17.5 -7t6.5 -18v-407q0 -120 -56 -187.5t-159 -85.5
q-30 -6 -44.5 -21t-14.5 -42q0 -30 17 -49t48 -19h13q11 0 17.5 -7t6.5 -17v-36q0 -11 -6.5 -17.5t-17.5 -6.5h-17q-72 0 -110.5 41.5z" />
    <glyph glyph-name="uogonek" unicode="&#x173;" horiz-adv-x="622" 
d="M420.5 -180q-36.5 40 -36.5 107q0 30 15 54t35 39q-9 5 -9 16v29q-55 -75 -166 -75q-92 0 -145 60t-53 165v281q0 11 7 17.5t17 6.5h90q10 0 17 -7t7 -17v-275q0 -123 107 -123q52 0 82.5 33t30.5 90v275q0 11 7 17.5t17 6.5h89q11 0 17.5 -6.5t6.5 -17.5v-472
q0 -9 -5.5 -15.5t-14.5 -8.5l-9 -1q-56 -17 -56 -72q0 -29 14 -46t40 -17h7q11 0 17.5 -7t6.5 -17v-36q0 -11 -6.5 -17.5t-17.5 -6.5h-11q-64 0 -100.5 40z" />
    <glyph glyph-name="Wcircumflex" unicode="&#x174;" horiz-adv-x="816" 
d="M157 30l-118 641l-1 8q0 9 6 15t15 6h90q13 0 19 -4.5t8 -15.5l83 -450l89 290q10 25 33 25h55q13 0 21 -7.5t11 -17.5l90 -290l82 450q3 20 28 20h90q8 0 14 -6t6 -15q0 -5 -1 -8l-118 -641q-2 -14 -11.5 -22t-24.5 -8h-68q-14 0 -23 7.5t-12 17.5l-112 332l-112 -332
q-8 -25 -35 -25h-68q-29 0 -36 30zM237 763q0 8 9 17l98 101q9 10 16.5 13t17.5 3h60q10 0 17 -3t17 -13l97 -101q9 -9 9 -17q0 -13 -14 -13h-40q-18 0 -31 7l-85 53l-85 -53q-13 -7 -31 -7h-40q-15 0 -15 13z" />
    <glyph glyph-name="wcircumflex" unicode="&#x175;" horiz-adv-x="821" 
d="M175 25l-143 464q-1 3 -1 9q0 9 6 15.5t15 6.5h76q10 0 17.5 -6t9.5 -13l97 -329l103 326q3 9 10.5 15.5t19.5 6.5h51q12 0 19.5 -6.5t9.5 -15.5l104 -326l97 329q2 7 9 13t18 6h75q9 0 15.5 -6.5t6.5 -15.5l-2 -9l-143 -464q-4 -12 -11.5 -18.5t-20.5 -6.5h-66
q-26 0 -33 25l-103 314l-104 -314q-8 -25 -34 -25h-65q-25 0 -33 25zM242 608q0 8 9 17l97 101q10 10 17 13t17 3h56q10 0 17.5 -3t16.5 -13l98 -101q9 -9 9 -17q0 -13 -15 -13h-38q-18 0 -31 7l-85 53l-85 -53q-13 -7 -31 -7h-37q-15 0 -15 13z" />
    <glyph glyph-name="Ycircumflex" unicode="&#x176;" horiz-adv-x="665" 
d="M269 7q-7 7 -7 17v225l-237 419q-3 9 -3 11q0 9 6.5 15t14.5 6h90q19 0 31 -19l168 -290l169 290q4 7 11.5 13t18.5 6h90q9 0 15 -6t6 -15q0 -6 -3 -11l-236 -419v-225q0 -11 -7 -17.5t-18 -6.5h-92q-10 0 -17 7zM161 763q0 8 9 17l98 101q9 10 16.5 13t17.5 3h60
q10 0 17 -3t17 -13l97 -101q9 -9 9 -17q0 -13 -14 -13h-40q-18 0 -31 7l-85 53l-85 -53q-13 -7 -31 -7h-40q-15 0 -15 13z" />
    <glyph glyph-name="ycircumflex" unicode="&#x177;" horiz-adv-x="575" 
d="M145.5 -184q-6.5 6 -6.5 14q0 7 4 16l79 185l-192 453q-4 9 -4 14q1 9 7 15.5t15 6.5h83q18 0 26 -19l133 -326l135 326q10 19 28 19h81q9 0 15 -6t6 -14q0 -7 -4 -16l-283 -655q-8 -19 -28 -19h-80q-8 0 -14.5 6zM121 608q0 8 9 17l97 101q10 10 17 13t17 3h56
q10 0 17.5 -3t16.5 -13l98 -101q9 -9 9 -17q0 -13 -15 -13h-38q-18 0 -31 7l-85 53l-85 -53q-13 -7 -31 -7h-37q-15 0 -15 13z" />
    <glyph glyph-name="Ydieresis" unicode="&#x178;" horiz-adv-x="665" 
d="M269 7q-7 7 -7 17v225l-237 419q-3 9 -3 11q0 9 6.5 15t14.5 6h90q19 0 31 -19l168 -290l169 290q4 7 11.5 13t18.5 6h90q9 0 15 -6t6 -15q0 -6 -3 -11l-236 -419v-225q0 -11 -7 -17.5t-18 -6.5h-92q-10 0 -17 7zM169 756q-6 6 -6 16v74q0 10 6 16.5t16 6.5h74
q10 0 16.5 -6.5t6.5 -16.5v-74q0 -10 -6.5 -16t-16.5 -6h-74q-10 0 -16 6zM388 756q-6 6 -6 16v74q0 10 6 16.5t16 6.5h74q10 0 16.5 -6.5t6.5 -16.5v-74q0 -10 -6.5 -16t-16.5 -6h-74q-10 0 -16 6z" />
    <glyph glyph-name="Zacute" unicode="&#x179;" horiz-adv-x="627" 
d="M45.5 7q-6.5 7 -6.5 18v71q0 13 4.5 21t10.5 16l347 447h-328q-10 0 -17 7t-7 18v70q0 11 6.5 18t17.5 7h479q11 0 18 -7t7 -18v-70q0 -20 -13 -35l-339 -450h339q11 0 17.5 -6.5t6.5 -17.5v-72q0 -10 -6.5 -17t-17.5 -7h-501q-11 0 -17.5 7zM242 766q0 8 5 13l82 99
q9 11 16.5 15t20.5 4h108q9 0 14 -5.5t5 -14.5q0 -7 -5 -12l-125 -102q-9 -7 -16.5 -10t-18.5 -3h-70q-16 0 -16 16z" />
    <glyph glyph-name="zacute" unicode="&#x17a;" horiz-adv-x="532" 
d="M47 7q-7 7 -7 17v58q0 9 3.5 16t10.5 17l255 299h-237q-10 0 -17 7.5t-7 17.5v57q0 10 7 17t17 7h381q10 0 17 -7t7 -17v-62q0 -8 -4.5 -16t-9.5 -15l-250 -297h260q10 0 17 -7t7 -18v-57q0 -10 -6.5 -17t-17.5 -7h-409q-10 0 -17 7zM209 611q0 8 5 13l82 99
q9 11 16.5 15t20.5 4h101q9 0 14 -5.5t5 -14.5q0 -7 -5 -12l-125 -102q-9 -7 -16.5 -10t-18.5 -3h-63q-16 0 -16 16z" />
    <glyph glyph-name="Zdotaccent" unicode="&#x17b;" horiz-adv-x="627" 
d="M45.5 7q-6.5 7 -6.5 18v71q0 13 4.5 21t10.5 16l347 447h-328q-10 0 -17 7t-7 18v70q0 11 6.5 18t17.5 7h479q11 0 18 -7t7 -18v-70q0 -20 -13 -35l-339 -450h339q11 0 17.5 -6.5t6.5 -17.5v-72q0 -10 -6.5 -17t-17.5 -7h-501q-11 0 -17.5 7zM245 756q-6 6 -6 16v85
q0 10 6 16.5t16 6.5h85q10 0 16.5 -6.5t6.5 -16.5v-85q0 -10 -6.5 -16t-16.5 -6h-85q-10 0 -16 6z" />
    <glyph glyph-name="zdotaccent" unicode="&#x17c;" horiz-adv-x="532" 
d="M47 7q-7 7 -7 17v58q0 9 3.5 16t10.5 17l255 299h-237q-10 0 -17 7.5t-7 17.5v57q0 10 7 17t17 7h381q10 0 17 -7t7 -17v-62q0 -8 -4.5 -16t-9.5 -15l-250 -297h260q10 0 17 -7t7 -18v-57q0 -10 -6.5 -17t-17.5 -7h-409q-10 0 -17 7zM211 614q-6 6 -6 16v83q0 10 6 16.5
t16 6.5h83q10 0 16.5 -6.5t6.5 -16.5v-83q0 -10 -6.5 -16t-16.5 -6h-83q-10 0 -16 6z" />
    <glyph glyph-name="Zcaron" unicode="&#x17d;" horiz-adv-x="627" 
d="M45.5 7q-6.5 7 -6.5 18v71q0 13 4.5 21t10.5 16l347 447h-328q-10 0 -17 7t-7 18v70q0 11 6.5 18t17.5 7h479q11 0 18 -7t7 -18v-70q0 -20 -13 -35l-339 -450h339q11 0 17.5 -6.5t6.5 -17.5v-72q0 -10 -6.5 -17t-17.5 -7h-501q-11 0 -17.5 7zM256.5 753q-7.5 3 -16.5 13
l-98 101q-9 8 -9 17q0 13 15 13h40q18 0 31 -7l85 -53l85 53q13 7 31 7h40q14 0 14 -13q0 -9 -9 -17l-97 -101q-10 -10 -17 -13t-17 -3h-60q-10 0 -17.5 3z" />
    <glyph glyph-name="zcaron" unicode="&#x17e;" horiz-adv-x="532" 
d="M47 7q-7 7 -7 17v58q0 9 3.5 16t10.5 17l255 299h-237q-10 0 -17 7.5t-7 17.5v57q0 10 7 17t17 7h381q10 0 17 -7t7 -17v-62q0 -8 -4.5 -16t-9.5 -15l-250 -297h260q10 0 17 -7t7 -18v-57q0 -10 -6.5 -17t-17.5 -7h-409q-10 0 -17 7zM223 598q-7 3 -17 13l-97 101
q-9 8 -9 17q0 13 15 13h37q18 0 31 -7l85 -53l85 53q13 7 31 7h38q15 0 15 -13q0 -9 -9 -17l-98 -101q-9 -10 -16.5 -13t-17.5 -3h-56q-10 0 -17 3z" />
    <glyph glyph-name="longs" unicode="&#x17f;" horiz-adv-x="320" 
d="M130 7q-7 7 -7 17v389h-81q-10 0 -17 7t-7 17v59q0 11 7 17.5t17 6.5h81v37q0 93 48.5 138t147.5 45h69q11 0 17.5 -6.5t6.5 -17.5v-59q0 -10 -7 -17t-17 -7h-64q-42 0 -56 -19.5t-14 -58.5v-531q0 -10 -7 -17t-18 -7h-82q-10 0 -17 7z" />
    <glyph glyph-name="florin" unicode="&#x192;" horiz-adv-x="448" 
d="M17 -218q-7 7 -7 17v70q0 10 7 17t18 7h20q47 0 64 24t17 74v422h-81q-10 0 -17 7t-7 17v59q0 11 7 17.5t17 6.5h81v40q0 180 196 180h69q11 0 17.5 -6.5t6.5 -17.5v-59q0 -10 -7 -17t-17 -7h-64q-39 0 -54.5 -19t-15.5 -59v-35h124q11 0 17.5 -6.5t6.5 -17.5v-59
q0 -10 -6.5 -17t-17.5 -7h-124v-426q0 -104 -50.5 -158t-161.5 -54h-20q-11 0 -18 7z" />
    <glyph glyph-name="AEacute" unicode="&#x1fc;" horiz-adv-x="955" 
d="M11 6q-6 6 -6 15q0 3 2 11q30 86 88 211.5t219 431.5q10 25 34 25h527q11 0 18 -7t7 -18v-67q0 -11 -7 -17.5t-18 -6.5h-316v-175h294q11 0 18 -7t7 -18v-63q0 -11 -7 -17.5t-18 -6.5h-294v-181h324q11 0 18 -6.5t7 -17.5v-68q0 -11 -7 -17.5t-18 -6.5h-437q-10 0 -17 7
t-7 17v116h-214q-57 -103 -63 -121q-9 -19 -29 -19h-91q-8 0 -14 6zM249 256h173v324h-13zM416 766q0 8 5 13l82 99q9 11 16.5 15t20.5 4h108q9 0 14 -5.5t5 -14.5q0 -7 -5 -12l-125 -102q-9 -7 -16.5 -10t-18.5 -3h-70q-16 0 -16 16z" />
    <glyph glyph-name="aeacute" unicode="&#x1fd;" horiz-adv-x="904" 
d="M395 611q0 8 5 13l82 99q9 11 16.5 15t20.5 4h101q9 0 14 -5.5t5 -14.5q0 -7 -5 -12l-125 -102q-9 -7 -16.5 -10t-18.5 -3h-63q-16 0 -16 16zM124 10q-44 20 -68 55t-24 78q0 68 55.5 111t151.5 58l136 19v20q0 43 -21.5 65t-70.5 22q-33 0 -53 -12t-32.5 -24.5
l-16.5 -16.5q-4 -12 -15 -12h-78q-9 0 -15.5 6t-6.5 16q0 24 24 56t73.5 55.5t120.5 23.5q123 0 169 -67q64 67 166 67q89 0 143.5 -39t77.5 -98.5t23 -126.5v-21q0 -10 -7 -17t-18 -7h-326v-8q2 -65 32 -97t74 -32q28 0 52 11.5t41 34.5q8 10 14 13t17 3h86q9 0 15 -5.5
t6 -15.5q0 -22 -27 -54.5t-79.5 -56.5t-123.5 -24q-127 0 -192 90q-66 -90 -201 -90q-58 0 -102 20zM725 306v4q0 59 -27 93.5t-79 34.5q-44 0 -74.5 -33t-32.5 -95v-4h213zM342 122q35 36 35 104v20l-100 -16q-115 -18 -115 -77q0 -32 26 -49.5t64 -17.5q55 0 90 36z" />
    <glyph glyph-name="Oslashacute" unicode="&#x1fe;" horiz-adv-x="723" 
d="M174 40.5q-72 50.5 -93 153.5l-38 -14q-8 -3 -12 -3q-9 0 -14.5 5t-5.5 14v56q0 12 5 18t17 11l36 13l-1 58q0 25 2 83q4 133 82.5 204t210.5 71q108 0 180.5 -49t97.5 -143l39 15q8 3 12 3q9 0 14.5 -5t5.5 -14v-57q0 -12 -5 -17.5t-17 -10.5l-33 -12l1 -66
q0 -30 -2 -90q-4 -136 -80 -205t-213 -69q-117 0 -189 50.5zM507 465q-9 65 -47 97t-97 32q-66 0 -105.5 -40.5t-42.5 -122.5q-2 -56 -1 -79zM469.5 146.5q39.5 40.5 41.5 122.5q2 66 1 94l-296 -116q8 -72 46.5 -106.5t100.5 -34.5q67 0 106.5 40.5zM299 766q0 8 5 13
l82 99q9 11 16.5 15t20.5 4h108q9 0 14 -5.5t5 -14.5q0 -7 -5 -12l-125 -102q-9 -7 -16.5 -10t-18.5 -3h-70q-16 0 -16 16z" />
    <glyph glyph-name="oslashacute" unicode="&#x1ff;" horiz-adv-x="624" 
d="M249 611q0 8 5 13l82 99q9 11 16.5 15t20.5 4h101q9 0 14 -5.5t5 -14.5q0 -7 -5 -12l-125 -102q-9 -7 -16.5 -10t-18.5 -3h-63q-16 0 -16 16zM163.5 26.5q-57.5 36.5 -82.5 100.5l-37 -14q-8 -3 -12 -3q-9 0 -14.5 5t-5.5 14v39q0 12 5 18t17 11l29 11q-2 38 -2 57l1 39
q5 100 68 163t183 63q90 0 146.5 -36.5t82.5 -99.5l38 15q8 3 12 3q9 0 14.5 -5.5t5.5 -14.5v-39q0 -12 -5 -17.5t-17 -10.5l-28 -11q2 -15 2 -55q0 -31 -1 -43q-5 -101 -66.5 -163.5t-183.5 -62.5q-92 0 -149.5 36.5zM420 346q-10 43 -38.5 63.5t-68.5 20.5q-50 0 -80 -30
t-33 -93v-46zM426 218v43l-221 -86q20 -84 108 -84q107 0 113 127z" />
    <glyph glyph-name="Scommaaccent" unicode="&#x218;" horiz-adv-x="643" 
d="M168 17q-64 27 -97 71t-35 96q0 8 6 14.5t15 6.5h91q11 0 18 -5t13 -14q10 -34 45.5 -57t97.5 -23q70 0 105.5 23.5t35.5 64.5q0 27 -18 45t-54.5 31.5t-108.5 32.5q-118 28 -173 74t-55 132q0 58 32 103.5t91.5 71.5t138.5 26q83 0 143.5 -29t92 -72.5t33.5 -86.5
q0 -8 -6 -14.5t-15 -6.5h-95q-22 0 -30 18q-5 32 -39 53.5t-84 21.5q-55 0 -86.5 -21t-31.5 -61q0 -27 16 -45t50 -31.5t99 -30.5q89 -20 141.5 -45t77.5 -63t25 -97q0 -65 -35.5 -112.5t-100 -72.5t-149.5 -25q-90 0 -154 27zM233 -220.5q-5 6.5 -4 15.5l19 123q2 14 10 23
t22 9h90q7 0 12.5 -5.5t5.5 -13.5q0 -6 -3 -13l-46 -119q-6 -12 -13.5 -19t-20.5 -7h-58q-9 0 -14 6.5z" />
    <glyph glyph-name="scommaaccent" unicode="&#x219;" horiz-adv-x="533" 
d="M137 13q-51 23 -75.5 53.5t-24.5 52.5q0 10 6.5 16t15.5 6h82q8 0 14 -8q5 -4 22.5 -19t40 -23.5t49.5 -8.5q40 0 65 15.5t25 44.5q0 20 -11.5 32.5t-41 23t-88.5 23.5q-85 18 -125.5 55t-40.5 98q0 40 24 75.5t71.5 58t113.5 22.5q68 0 117 -21.5t74.5 -51.5t25.5 -53
q0 -9 -6.5 -15.5t-15.5 -6.5h-75q-11 0 -17 8q-7 5 -22.5 18.5t-34.5 21.5t-46 8q-37 0 -57 -16t-20 -42q0 -18 9.5 -30t38.5 -22.5t87 -21.5q180 -35 180 -157q0 -71 -61.5 -115t-171.5 -44q-76 0 -127 23zM181 -220.5q-5 6.5 -4 15.5l19 123q2 14 10 23t22 9h85
q7 0 12.5 -5.5t5.5 -13.5q0 -6 -3 -13l-46 -119q-6 -12 -13 -19t-20 -7h-55q-8 0 -13 6.5z" />
    <glyph glyph-name="uni021A" unicode="&#x21a;" horiz-adv-x="606" 
d="M239 7q-7 7 -7 17v551h-185q-10 0 -17 7t-7 18v75q0 11 6.5 18t17.5 7h511q11 0 18 -7t7 -18v-75q0 -11 -7 -18t-18 -7h-184v-551q0 -10 -6.5 -17t-17.5 -7h-94q-10 0 -17 7zM213 -220.5q-5 6.5 -4 15.5l19 123q2 14 10 23t22 9h90q7 0 12.5 -5.5t5.5 -13.5q0 -6 -3 -13
l-46 -119q-6 -12 -13.5 -19t-20.5 -7h-58q-9 0 -14 6.5z" />
    <glyph glyph-name="uni021B" unicode="&#x21b;" horiz-adv-x="431" 
d="M165 47.5q-46 47.5 -46 139.5v226h-79q-10 0 -17 7t-7 17v59q0 10 7 17t17 7h79v166q0 11 7 17.5t17 6.5h83q11 0 17.5 -6.5t6.5 -17.5v-166h125q10 0 17 -7t7 -17v-59q0 -10 -7 -17t-17 -7h-125v-215q0 -43 15 -65t49 -22h70q11 0 17.5 -6.5t6.5 -17.5v-63
q0 -10 -6.5 -17t-17.5 -7h-82q-91 0 -137 47.5zM128 -220.5q-5 6.5 -4 15.5l19 123q2 14 10 23t22 9h85q7 0 12.5 -5.5t5.5 -13.5q0 -6 -3 -13l-46 -119q-6 -12 -13 -19t-20 -7h-55q-8 0 -13 6.5z" />
    <glyph glyph-name="uni0237" unicode="&#x237;" horiz-adv-x="358" 
d="M22 -183.5q-7 6.5 -7 17.5v73q0 10 7 17t17 7h45q41 0 55.5 22t14.5 63v394h-108q-10 0 -17 7t-7 17v62q0 11 7 17.5t17 6.5h221q11 0 17.5 -6.5t6.5 -17.5v-480q0 -95 -49 -150.5t-145 -55.5h-58q-10 0 -17 6.5z" />
    <glyph glyph-name="uni02BC" unicode="&#x2bc;" horiz-adv-x="154" 
d="M4 624.5q-5 6.5 -4 15.5l19 123q2 14 10 23t22 9h85q7 0 12.5 -5.5t5.5 -13.5q0 -6 -3 -13l-46 -119q-6 -12 -13 -19t-20 -7h-55q-8 0 -13 6.5z" />
    <glyph glyph-name="circumflex" unicode="&#x2c6;" horiz-adv-x="460" 
d="M62 608q0 8 9 17l97 101q10 10 17 13t17 3h56q10 0 17.5 -3t16.5 -13l98 -101q9 -9 9 -17q0 -13 -15 -13h-38q-18 0 -31 7l-85 53l-85 -53q-13 -7 -31 -7h-37q-15 0 -15 13z" />
    <glyph glyph-name="caron" unicode="&#x2c7;" horiz-adv-x="460" 
d="M185 598q-7 3 -17 13l-97 101q-9 8 -9 17q0 13 15 13h37q18 0 31 -7l85 -53l85 53q13 7 31 7h38q15 0 15 -13q0 -9 -9 -17l-98 -101q-9 -10 -16.5 -13t-17.5 -3h-56q-10 0 -17 3z" />
    <glyph glyph-name="breve" unicode="&#x2d8;" horiz-adv-x="401" 
d="M98.5 627.5q-33.5 37.5 -33.5 95.5q0 8 5 13.5t14 5.5h48q9 0 14 -5.5t5 -13.5q0 -62 49 -62q50 0 50 62q0 8 5 13.5t14 5.5h48q9 0 14 -5.5t5 -13.5q0 -58 -33.5 -95.5t-102.5 -37.5q-68 0 -101.5 37.5z" />
    <glyph glyph-name="dotaccent" unicode="&#x2d9;" horiz-adv-x="251" 
d="M68 614q-6 6 -6 16v83q0 10 6 16.5t16 6.5h83q10 0 16.5 -6.5t6.5 -16.5v-83q0 -10 -6.5 -16t-16.5 -6h-83q-10 0 -16 6z" />
    <glyph glyph-name="ring" unicode="&#x2da;" horiz-adv-x="300" 
d="M87.5 613.5q-25.5 23.5 -25.5 59.5t25.5 60t62.5 24t62.5 -24t25.5 -60t-25.5 -59.5t-62.5 -23.5t-62.5 23.5zM171.5 651.5q8.5 8.5 8.5 21.5t-8.5 21.5t-21.5 8.5t-21.5 -8.5t-8.5 -21.5t8.5 -21.5t21.5 -8.5t21.5 8.5z" />
    <glyph glyph-name="ogonek" unicode="&#x2db;" horiz-adv-x="309" 
d="M96.5 -178.5q-38.5 41.5 -38.5 110.5t38.5 110.5t109.5 41.5h17q11 0 17.5 -6.5t6.5 -17.5v-36q0 -10 -6.5 -17t-17.5 -7h-13q-31 0 -48 -19t-17 -49t17 -49t48 -19h13q11 0 17.5 -7t6.5 -17v-36q0 -11 -6.5 -17.5t-17.5 -6.5h-17q-71 0 -109.5 41.5z" />
    <glyph glyph-name="tilde" unicode="&#x2dc;" horiz-adv-x="432" 
d="M240 595q-13 5 -31 15q-13 8 -21 11.5t-18 3.5q-9 0 -14 -4t-11 -12q-8 -14 -19 -14h-47q-7 0 -12 5t-5 12q0 23 10.5 48t32.5 42.5t55 17.5q19 0 32 -5t31 -15q13 -8 21 -11.5t18 -3.5q9 0 14.5 4t10.5 12q5 7 9 10.5t11 3.5h46q8 0 13 -5t5 -12q0 -23 -11 -48
t-33.5 -42.5t-54.5 -17.5q-19 0 -32 5z" />
    <glyph glyph-name="hungarumlaut" unicode="&#x2dd;" horiz-adv-x="502" 
d="M63 611q0 5 5 15l43 97q5 10 13.5 14.5t23.5 4.5h82q9 0 14.5 -5t5.5 -14q0 -7 -6 -13l-89 -101q-12 -14 -32 -14h-44q-16 0 -16 16zM253 611q0 5 5 15l43 97q5 10 13.5 14.5t23.5 4.5h82q9 0 14.5 -5t5.5 -14q0 -7 -6 -13l-89 -101q-12 -14 -32 -14h-44q-16 0 -16 16z
" />
    <glyph glyph-name="gravecomb" unicode="&#x300;" 
d="M-159.5 598q-7.5 3 -16.5 10l-125 102q-5 5 -5 12q0 9 5 14.5t14 5.5h101q13 0 20.5 -4t16.5 -15l82 -99q5 -5 5 -13q0 -16 -16 -16h-63q-11 0 -18.5 3z" />
    <glyph glyph-name="acutecomb" unicode="&#x301;" 
d="M-306 611q0 8 5 13l82 99q9 11 16.5 15t20.5 4h101q9 0 14 -5.5t5 -14.5q0 -7 -5 -12l-125 -102q-9 -7 -16.5 -10t-18.5 -3h-63q-16 0 -16 16z" />
    <glyph glyph-name="uni0302" unicode="&#x302;" 
d="M-398 608q0 8 9 17l97 101q10 10 17 13t17 3h56q10 0 17.5 -3t16.5 -13l98 -101q9 -9 9 -17q0 -13 -15 -13h-38q-18 0 -31 7l-85 53l-85 -53q-13 -7 -31 -7h-37q-15 0 -15 13z" />
    <glyph glyph-name="tildecomb" unicode="&#x303;" 
d="M-192 595q-13 5 -31 15q-13 8 -21 11.5t-18 3.5q-9 0 -14 -4t-11 -12q-8 -14 -19 -14h-47q-7 0 -12 5t-5 12q0 23 10.5 48t32.5 42.5t55 17.5q19 0 32 -5t31 -15q13 -8 21 -11.5t18 -3.5q9 0 14.5 4t10.5 12q5 7 9 10.5t11 3.5h46q8 0 13 -5t5 -12q0 -23 -11 -48
t-33.5 -42.5t-54.5 -17.5q-19 0 -32 5z" />
    <glyph glyph-name="uni0304" unicode="&#x304;" 
d="M-353 617q-6 6 -6 16v52q0 10 6 16t16 6h252q10 0 16.5 -6t6.5 -16v-52q0 -10 -6.5 -16t-16.5 -6h-252q-10 0 -16 6z" />
    <glyph glyph-name="uni0306" unicode="&#x306;" 
d="M-302.5 627.5q-33.5 37.5 -33.5 95.5q0 8 5 13.5t14 5.5h48q9 0 14 -5.5t5 -13.5q0 -62 49 -62q50 0 50 62q0 8 5 13.5t14 5.5h48q9 0 14 -5.5t5 -13.5q0 -58 -33.5 -95.5t-102.5 -37.5q-68 0 -101.5 37.5z" />
    <glyph glyph-name="uni0307" unicode="&#x307;" 
d="M-183 614q-6 6 -6 16v83q0 10 6 16.5t16 6.5h83q10 0 16.5 -6.5t6.5 -16.5v-83q0 -10 -6.5 -16t-16.5 -6h-83q-10 0 -16 6z" />
    <glyph glyph-name="uni0308" unicode="&#x308;" 
d="M-363 620q-6 6 -6 16v74q0 10 6 16.5t16 6.5h74q10 0 16.5 -6.5t6.5 -16.5v-74q0 -10 -6.5 -16t-16.5 -6h-74q-10 0 -16 6zM-174 620q-6 6 -6 16v74q0 10 6 16.5t16 6.5h74q10 0 16.5 -6.5t6.5 -16.5v-74q0 -10 -6.5 -16t-16.5 -6h-74q-10 0 -16 6z" />
    <glyph glyph-name="uni030A" unicode="&#x30a;" 
d="M-212.5 613.5q-25.5 23.5 -25.5 59.5t25.5 60t62.5 24t62.5 -24t25.5 -60t-25.5 -59.5t-62.5 -23.5t-62.5 23.5zM-128.5 651.5q8.5 8.5 8.5 21.5t-8.5 21.5t-21.5 8.5t-21.5 -8.5t-8.5 -21.5t8.5 -21.5t21.5 -8.5t21.5 8.5z" />
    <glyph glyph-name="uni030B" unicode="&#x30b;" 
d="M-439 611q0 5 5 15l43 97q5 10 13.5 14.5t23.5 4.5h82q9 0 14.5 -5t5.5 -14q0 -7 -6 -13l-89 -101q-12 -14 -32 -14h-44q-16 0 -16 16zM-249 611q0 5 5 15l43 97q5 10 13.5 14.5t23.5 4.5h82q9 0 14.5 -5t5.5 -14q0 -7 -6 -13l-89 -101q-12 -14 -32 -14h-44q-16 0 -16 16
z" />
    <glyph glyph-name="uni030C" unicode="&#x30c;" 
d="M-275 598q-7 3 -17 13l-97 101q-9 8 -9 17q0 13 15 13h37q18 0 31 -7l85 -53l85 53q13 7 31 7h38q15 0 15 -13q0 -9 -9 -17l-98 -101q-9 -10 -16.5 -13t-17.5 -3h-56q-10 0 -17 3z" />
    <glyph glyph-name="uni0326" unicode="&#x326;" 
d="M-211 -220.5q-5 6.5 -4 15.5l19 123q2 14 10 23t22 9h85q7 0 12.5 -5.5t5.5 -13.5q0 -6 -3 -13l-46 -119q-6 -12 -13 -19t-20 -7h-55q-8 0 -13 6.5z" />
    <glyph glyph-name="uni0327" unicode="&#x327;" 
d="M-216 -206q-26 14 -26 28q0 4 5 9l16 15q5 5 10 5t20 -8.5t33 -8.5q16 0 26.5 9.5t10.5 24.5q0 14 -10.5 23t-26.5 9q-10 0 -24.5 -4.5t-19.5 -4.5q-7 0 -13 6l-18 19q-4 5 -4 11q0 8 6 20l35 80h62l-40 -80q11 7 34 7q35 0 57 -23.5t22 -61.5t-25.5 -63.5t-69.5 -25.5
q-34 0 -60 14z" />
    <glyph glyph-name="uni0328" unicode="&#x328;" 
d="M-212.5 -178.5q-38.5 41.5 -38.5 110.5t38.5 110.5t109.5 41.5h17q11 0 17.5 -6.5t6.5 -17.5v-36q0 -10 -6.5 -17t-17.5 -7h-13q-31 0 -48 -19t-17 -49t17 -49t48 -19h13q11 0 17.5 -7t6.5 -17v-36q0 -11 -6.5 -17.5t-17.5 -6.5h-17q-71 0 -109.5 41.5z" />
    <glyph glyph-name="uni0335" unicode="&#x335;" 
d="M-489 261q-7 7 -7 17v37q0 11 6.5 17.5t17.5 6.5h283q10 0 17 -7t7 -17v-37q0 -10 -7 -17t-17 -7h-283q-10 0 -17 7z" />
    <glyph glyph-name="uni0400" unicode="&#x400;" horiz-adv-x="623" 
d="M85 7q-7 7 -7 17v651q0 11 6.5 18t17.5 7h441q11 0 18 -7t7 -18v-67q0 -11 -7 -17.5t-18 -6.5h-328v-175h306q11 0 18 -7t7 -18v-63q0 -11 -7 -17.5t-18 -6.5h-306v-181h336q11 0 18 -6.5t7 -17.5v-68q0 -11 -7 -17.5t-18 -6.5h-449q-10 0 -17 7zM293.5 753
q-7.5 3 -16.5 10l-125 102q-5 5 -5 12q0 9 5 14.5t14 5.5h109q13 0 20 -4t17 -15l81 -99q5 -5 5 -13q0 -16 -16 -16h-70q-11 0 -18.5 3z" />
    <glyph glyph-name="uni0401" unicode="&#x401;" horiz-adv-x="623" 
d="M85 7q-7 7 -7 17v651q0 11 6.5 18t17.5 7h441q11 0 18 -7t7 -18v-67q0 -11 -7 -17.5t-18 -6.5h-328v-175h306q11 0 18 -7t7 -18v-63q0 -11 -7 -17.5t-18 -6.5h-306v-181h336q11 0 18 -6.5t7 -17.5v-68q0 -11 -7 -17.5t-18 -6.5h-449q-10 0 -17 7zM184 800q-6 6 -6 16v74
q0 10 6 16.5t16 6.5h74q10 0 16.5 -6.5t6.5 -16.5v-74q0 -10 -6.5 -16t-16.5 -6h-74q-10 0 -16 6zM373 800q-6 6 -6 16v74q0 10 6 16.5t16 6.5h74q10 0 16.5 -6.5t6.5 -16.5v-74q0 -10 -6.5 -16t-16.5 -6h-74q-10 0 -16 6z" />
    <glyph glyph-name="uni0402" unicode="&#x402;" horiz-adv-x="744" 
d="M182 7q-7 7 -7 17v567h-130q-10 0 -16 6.5t-6 16.5v63q0 10 6 16.5t16 6.5h489q11 0 17 -6t6 -17v-63q0 -10 -6.5 -16.5t-16.5 -6.5h-219v-171q21 24 68.5 37t96.5 13q228 0 228 -219v-33q0 -104 -67.5 -161t-199.5 -57h-11q-10 0 -17 7t-7 17v62q0 11 7 17.5t17 6.5h11
q69 0 97.5 28.5t28.5 79.5v21q0 52 -28.5 76.5t-89.5 24.5q-56 0 -95 -19t-39 -64v-233q0 -10 -6.5 -17t-17.5 -7h-92q-10 0 -17 7z" />
    <glyph glyph-name="uni0403" unicode="&#x403;" horiz-adv-x="544" 
d="M85 7q-7 7 -7 17v651q0 11 6.5 18t17.5 7h409q11 0 18 -7t7 -18v-71q0 -11 -7 -17.5t-18 -6.5h-292v-556q0 -10 -7 -17t-18 -7h-92q-10 0 -17 7zM268 766q0 8 5 13l82 99q9 11 16.5 15t20.5 4h108q9 0 14 -5.5t5 -14.5q0 -7 -5 -12l-125 -102q-9 -7 -16.5 -10t-18.5 -3
h-70q-16 0 -16 16z" />
    <glyph glyph-name="uni0404" unicode="&#x404;" horiz-adv-x="665" 
d="M132.5 61q-76.5 71 -81.5 220l-1 69l1 69q5 148 82 219.5t207 71.5q117 0 192 -49.5t85 -136.5v-2q0 -8 -6.5 -13.5t-15.5 -5.5h-94q-11 0 -16 4t-10 15q-10 32 -43 52t-89 20q-147 0 -147 -172v-17h218q10 0 17 -7.5t7 -18.5v-58q0 -11 -7 -18t-17 -7h-218v-19
q0 -81 38.5 -126.5t108.5 -45.5q56 0 89.5 20t44.5 52q5 11 10.5 15t16.5 4h93q9 0 16 -6t6 -15q-10 -87 -87 -136t-192 -49q-131 0 -207.5 71z" />
    <glyph glyph-name="uni0405" unicode="&#x405;" horiz-adv-x="643" 
d="M168 17q-64 27 -97 71t-35 96q0 8 6 14.5t15 6.5h91q11 0 18 -5t13 -14q10 -34 45.5 -57t97.5 -23q70 0 105.5 23.5t35.5 64.5q0 27 -18 45t-54.5 31.5t-108.5 32.5q-118 28 -173 74t-55 132q0 58 32 103.5t91.5 71.5t138.5 26q83 0 143.5 -29t92 -72.5t33.5 -86.5
q0 -8 -6 -14.5t-15 -6.5h-95q-22 0 -30 18q-5 32 -39 53.5t-84 21.5q-55 0 -86.5 -21t-31.5 -61q0 -27 16 -45t50 -31.5t99 -30.5q89 -20 141.5 -45t77.5 -63t25 -97q0 -65 -35.5 -112.5t-100 -72.5t-149.5 -25q-90 0 -154 27z" />
    <glyph glyph-name="uni0406" unicode="&#x406;" horiz-adv-x="300" 
d="M85 7q-7 7 -7 17v652q0 11 7 17.5t17 6.5h96q11 0 17.5 -6.5t6.5 -17.5v-652q0 -10 -6.5 -17t-17.5 -7h-96q-10 0 -17 7z" />
    <glyph glyph-name="uni0407" unicode="&#x407;" horiz-adv-x="300" 
d="M85 7q-7 7 -7 17v652q0 11 7 17.5t17 6.5h96q11 0 17.5 -6.5t6.5 -17.5v-652q0 -10 -6.5 -17t-17.5 -7h-96q-10 0 -17 7zM2 800q-6 6 -6 16v74q0 10 6 16.5t16 6.5h74q10 0 16.5 -6.5t6.5 -16.5v-74q0 -10 -6.5 -16t-16.5 -6h-74q-10 0 -16 6zM191 800q-6 6 -6 16v74
q0 10 6 16.5t16 6.5h74q10 0 16.5 -6.5t6.5 -16.5v-74q0 -10 -6.5 -16t-16.5 -6h-74q-10 0 -16 6z" />
    <glyph glyph-name="uni0408" unicode="&#x408;" horiz-adv-x="653" 
d="M168.5 15q-61.5 25 -99 75t-39.5 121q0 9 6 15.5t16 6.5h97q23 0 29 -25q8 -52 42.5 -77t87.5 -25q62 0 95.5 40.5t33.5 113.5v320h-339q-10 0 -17 7t-7 18v71q0 11 7 17.5t17 6.5h459q11 0 17.5 -7t6.5 -18v-419q0 -83 -34 -143t-96.5 -91.5t-146.5 -31.5
q-74 0 -135.5 25z" />
    <glyph glyph-name="uni0409" unicode="&#x409;" horiz-adv-x="1036" 
d="M33.5 7.5q-7.5 7.5 -7.5 17.5v77q0 10 6.5 16t16.5 8q59 9 87.5 92.5t28.5 248.5v209q0 11 7 17.5t17 6.5h427q11 0 17.5 -6.5t6.5 -17.5v-228h111q120 0 185 -56.5t65 -164.5q0 -65 -28.5 -116.5t-85 -81t-136.5 -29.5h-228q-10 0 -17 7t-7 17v549h-198v-124
q0 -165 -22.5 -260.5t-76.5 -140t-151 -47.5q-10 -1 -17.5 6.5zM745 113q52 0 81.5 31.5t29.5 83.5q0 53 -28.5 80.5t-82.5 27.5h-105v-223h105z" />
    <glyph glyph-name="uni040A" unicode="&#x40a;" horiz-adv-x="1037" 
d="M85 7q-7 7 -7 17v651q0 11 6.5 18t17.5 7h92q11 0 18 -7t7 -18v-257h281v257q0 11 6.5 18t17.5 7h93q10 0 17 -7t7 -17v-228h110q120 0 185 -56t65 -165q0 -65 -28.5 -116.5t-85 -81t-136.5 -29.5h-227q-10 0 -17 7t-7 17v267h-281v-267q0 -10 -7 -17t-18 -7h-92
q-10 0 -17 7zM745 113q52 0 81.5 31.5t29.5 83.5q0 53 -28 80.5t-83 27.5h-104v-223h104z" />
    <glyph glyph-name="uni040B" unicode="&#x40b;" horiz-adv-x="759" 
d="M182 7q-7 7 -7 17v567h-130q-10 0 -16 6.5t-6 16.5v63q0 10 6 16.5t16 6.5h489q11 0 17 -6t6 -17v-63q0 -10 -6.5 -16.5t-16.5 -6.5h-219v-180q22 25 69 38t96 13q228 0 228 -220v-218q0 -10 -6.5 -17t-17.5 -7h-92q-11 0 -18 6.5t-7 17.5v207q0 51 -28.5 76t-89.5 25
q-53 0 -93.5 -18t-40.5 -65v-225q0 -10 -6.5 -17t-17.5 -7h-92q-10 0 -17 7z" />
    <glyph glyph-name="uni040C" unicode="&#x40c;" horiz-adv-x="672" 
d="M642 23q0 -9 -6.5 -16t-16.5 -7h-105q-20 0 -30 17l-171 274h-94v-267q0 -10 -7 -17t-18 -7h-92q-10 0 -17 7t-7 17v651q0 11 6.5 18t17.5 7h92q11 0 18 -7t7 -18v-257l86 -1l161 265q11 18 36 18h102q10 0 15.5 -6t5.5 -15q0 -5 -5 -12l-188 -305l207 -328q3 -4 3 -11z
M263 766q0 8 5 13l82 99q9 11 16.5 15t20.5 4h108q9 0 14 -5.5t5 -14.5q0 -7 -5 -12l-125 -102q-9 -7 -16.5 -10t-18.5 -3h-70q-16 0 -16 16z" />
    <glyph glyph-name="uni040D" unicode="&#x40d;" horiz-adv-x="761" 
d="M84.5 7q-6.5 7 -6.5 18v650q0 11 6.5 18t17.5 7h93q10 0 17 -7t7 -18v-457l327 465q9 17 29 17h84q11 0 17.5 -7t6.5 -18v-651q0 -10 -6.5 -17t-17.5 -7h-92q-11 0 -18 7t-7 17v447l-326 -454q-10 -17 -29 -17h-85q-11 0 -17.5 7zM342.5 753q-7.5 3 -16.5 10l-125 102
q-5 5 -5 12q0 9 5 14.5t14 5.5h109q13 0 20 -4t17 -15l81 -99q5 -5 5 -13q0 -16 -16 -16h-70q-11 0 -18.5 3z" />
    <glyph glyph-name="uni040E" unicode="&#x40e;" horiz-adv-x="621" 
d="M615 694q6 -6 6 -14q0 -10 -4 -17l-201 -459q-35 -80 -64 -122t-70.5 -62t-108.5 -20h-47q-10 0 -17 7t-7 17v76q0 10 7 17t17 7h37q34 0 57.5 18t45.5 60l-253 466q-2 8 -2 10q0 9 6.5 15.5t15.5 6.5h100q17 0 26 -19l176 -328l143 328q7 19 28 19h94q9 0 15 -6z
M194 777.5q-40 37.5 -40 97.5q0 8 5 13.5t14 5.5h58q9 0 14 -5.5t5 -13.5q0 -57 71 -57q70 0 70 57q0 8 5 13.5t14 5.5h58q9 0 14 -5.5t5 -13.5q0 -60 -39.5 -97.5t-126.5 -37.5t-127 37.5z" />
    <glyph glyph-name="uni040F" unicode="&#x40f;" horiz-adv-x="730" 
d="M301 -133q-7 7 -7 17v116h-192q-10 0 -17 7t-7 17v652q0 11 7 17.5t17 6.5h92q11 0 18 -7t7 -17v-549h292v549q0 10 7 17t17 7h93q11 0 17.5 -6.5t6.5 -17.5v-652q0 -10 -6.5 -17t-17.5 -7h-193v-116q0 -11 -6.5 -17.5t-17.5 -6.5h-93q-10 0 -17 7z" />
    <glyph glyph-name="uni0410" unicode="&#x410;" horiz-adv-x="694" 
d="M20 6q-6 6 -6 15l2 9l240 645q10 25 36 25h110q26 0 36 -25l240 -645l2 -9q0 -9 -6.5 -15t-14.5 -6h-89q-21 0 -29 19l-46 121h-296l-46 -121q-8 -19 -29 -19h-89q-9 0 -15 6zM234 256h226l-113 308z" />
    <glyph glyph-name="uni0411" unicode="&#x411;" horiz-adv-x="649" 
d="M85 7q-7 7 -7 17v651q0 11 6.5 18t17.5 7h458q11 0 18 -7t7 -18v-71q0 -11 -7 -17.5t-18 -6.5h-341v-159h167q113 0 177.5 -56t64.5 -152q0 -57 -28 -105.5t-82.5 -78t-131.5 -29.5h-284q-10 0 -17 7zM372 107q51 0 81 31t30 77q0 45 -28.5 73.5t-82.5 28.5h-153v-210
h153z" />
    <glyph glyph-name="uni0412" unicode="&#x412;" horiz-adv-x="687" 
d="M85 7q-7 7 -7 17v651q0 11 6.5 18t17.5 7h290q117 0 175 -51.5t58 -140.5q0 -52 -25.5 -88.5t-59.5 -52.5q42 -19 71 -62t29 -98q0 -93 -63 -150t-176 -57h-299q-10 0 -17 7zM374 413q51 0 78.5 25t27.5 67t-27 65t-79 23h-155v-180h155zM384 107q52 0 81 28.5t29 72.5
t-29.5 72.5t-80.5 28.5h-165v-202h165z" />
    <glyph glyph-name="uni0413" unicode="&#x413;" horiz-adv-x="544" 
d="M85 7q-7 7 -7 17v651q0 11 6.5 18t17.5 7h409q11 0 18 -7t7 -18v-71q0 -11 -7 -17.5t-18 -6.5h-292v-556q0 -10 -7 -17t-18 -7h-92q-10 0 -17 7z" />
    <glyph glyph-name="uni0414" unicode="&#x414;" horiz-adv-x="746" 
d="M33 -132.5q-7 6.5 -7 17.5v218q0 10 7 17t17 7h20q47 0 68.5 86t21.5 254v209q0 10 7 17t17 7h432q11 0 18 -7t7 -18v-548h48q10 0 17.5 -7t7.5 -17v-218q0 -10 -7 -17t-18 -7h-92q-10 0 -17 6.5t-7 17.5v115h-406v-115q0 -11 -6.5 -17.5t-17.5 -6.5h-93q-10 0 -17 6.5z
M500 127v446h-203v-124q0 -235 -55 -322h258z" />
    <glyph glyph-name="uni0415" unicode="&#x415;" horiz-adv-x="623" 
d="M85 7q-7 7 -7 17v651q0 11 6.5 18t17.5 7h441q11 0 18 -7t7 -18v-67q0 -11 -7 -17.5t-18 -6.5h-328v-175h306q11 0 18 -7t7 -18v-63q0 -11 -7 -17.5t-18 -6.5h-306v-181h336q11 0 18 -6.5t7 -17.5v-68q0 -11 -7 -17.5t-18 -6.5h-449q-10 0 -17 7z" />
    <glyph glyph-name="uni0416" unicode="&#x416;" horiz-adv-x="1032" 
d="M1001 23q0 -9 -6.5 -16t-15.5 -7h-105q-12 0 -18.5 4.5t-12.5 12.5l-171 274h-88v-267q0 -10 -6.5 -17t-17.5 -7h-88q-11 0 -18 7t-7 17v267h-88l-171 -274q-10 -17 -30 -17h-105q-10 0 -16.5 7t-6.5 16q0 7 3 11l207 328l-188 305q-5 7 -5 12q0 9 5.5 15t15.5 6h101
q25 0 35 -18l161 -265l82 1v258q0 10 7 17t18 7h88q11 0 17.5 -6.5t6.5 -17.5v-258l81 -1l161 265q11 18 36 18h101q10 0 15.5 -6t5.5 -15q0 -7 -4 -12l-189 -305l208 -328q2 -3 2 -11z" />
    <glyph glyph-name="uni0417" unicode="&#x417;" horiz-adv-x="647" 
d="M167 16q-61 26 -92.5 68t-36.5 92v2q0 8 6 13t15 5h91q11 0 18.5 -4.5t11.5 -15.5q12 -33 45.5 -52t87.5 -19q62 0 102 27t40 73q0 48 -35 73.5t-98 25.5h-73q-10 0 -17 7.5t-7 17.5v59q0 11 7 18.5t17 7.5h70q53 0 84 22.5t31 68.5q0 40 -33 64.5t-85 24.5
q-53 0 -86.5 -18.5t-41.5 -53.5q-4 -10 -10 -14.5t-17 -4.5h-94q-9 0 -15.5 6t-5.5 15q7 81 75 133.5t197 52.5q80 0 139 -26.5t90 -71t31 -96.5q0 -45 -18.5 -84.5t-61.5 -63.5q52 -26 77 -70.5t25 -97.5q0 -62 -35 -109.5t-99 -74t-150 -26.5q-88 0 -149 26z" />
    <glyph glyph-name="uni0418" unicode="&#x418;" horiz-adv-x="761" 
d="M84.5 7q-6.5 7 -6.5 18v650q0 11 6.5 18t17.5 7h93q10 0 17 -7t7 -18v-457l327 465q9 17 29 17h84q11 0 17.5 -7t6.5 -18v-651q0 -10 -6.5 -17t-17.5 -7h-92q-11 0 -18 7t-7 17v447l-326 -454q-10 -17 -29 -17h-85q-11 0 -17.5 7z" />
    <glyph glyph-name="uni0419" unicode="&#x419;" horiz-adv-x="761" 
d="M84.5 7q-6.5 7 -6.5 18v650q0 11 6.5 18t17.5 7h93q10 0 17 -7t7 -18v-457l327 465q9 17 29 17h84q11 0 17.5 -7t6.5 -18v-651q0 -10 -6.5 -17t-17.5 -7h-92q-11 0 -18 7t-7 17v447l-326 -454q-10 -17 -29 -17h-85q-11 0 -17.5 7zM254 777.5q-40 37.5 -40 97.5
q0 8 5 13.5t14 5.5h58q9 0 14 -5.5t5 -13.5q0 -57 71 -57q70 0 70 57q0 8 5 13.5t14 5.5h58q9 0 14 -5.5t5 -13.5q0 -60 -39.5 -97.5t-126.5 -37.5t-127 37.5z" />
    <glyph glyph-name="uni041A" unicode="&#x41a;" horiz-adv-x="672" 
d="M642 23q0 -9 -6.5 -16t-16.5 -7h-105q-20 0 -30 17l-171 274h-94v-267q0 -10 -7 -17t-18 -7h-92q-10 0 -17 7t-7 17v651q0 11 6.5 18t17.5 7h92q11 0 18 -7t7 -18v-257l86 -1l161 265q11 18 36 18h102q10 0 15.5 -6t5.5 -15q0 -5 -5 -12l-188 -305l207 -328q3 -4 3 -11z
" />
    <glyph glyph-name="uni041B" unicode="&#x41b;" horiz-adv-x="735" 
d="M524 7q-7 7 -7 17v549h-216v-124q0 -165 -22.5 -260.5t-76.5 -140t-151 -47.5q-10 -1 -17.5 6.5t-7.5 17.5v77q0 10 6.5 16t16.5 8q59 9 87.5 92.5t28.5 248.5v209q0 11 7 17.5t17 6.5h444q11 0 18 -7t7 -18v-651q0 -10 -7 -17t-18 -7h-92q-10 0 -17 7z" />
    <glyph glyph-name="uni041C" unicode="&#x41c;" horiz-adv-x="812" 
d="M85 7q-7 7 -7 17v651q0 11 6.5 18t17.5 7h81q19 0 30 -19l193 -358l193 358q11 19 30 19h80q11 0 18 -7t7 -18v-651q0 -11 -7 -17.5t-18 -6.5h-86q-10 0 -17 7t-7 17v430l-139 -264q-11 -22 -33 -22h-42q-21 0 -34 22l-139 264v-430q0 -10 -6.5 -17t-17.5 -7h-86
q-10 0 -17 7z" />
    <glyph glyph-name="uni041D" unicode="&#x41d;" horiz-adv-x="730" 
d="M85 7q-7 7 -7 17v651q0 11 6.5 18t17.5 7h92q11 0 18 -7t7 -18v-257h292v257q0 11 7 18t17 7h93q11 0 17.5 -7t6.5 -18v-651q0 -10 -6.5 -17t-17.5 -7h-93q-10 0 -17 7t-7 17v267h-292v-267q0 -10 -7 -17t-18 -7h-92q-10 0 -17 7z" />
    <glyph glyph-name="uni041E" unicode="&#x41e;" horiz-adv-x="695" 
d="M135 59q-76 69 -80 205q-1 29 -1 85q0 57 1 86q4 133 82 204t211 71q132 0 210.5 -71t82.5 -204q2 -58 2 -86q0 -27 -2 -85q-4 -136 -80.5 -205t-212.5 -69q-137 0 -213 69zM454 146q39 40 42 123q2 60 2 81q0 23 -2 81q-3 82 -43 122.5t-105 40.5q-66 0 -106 -40.5
t-42 -122.5q-1 -29 -1 -81q0 -51 1 -81q2 -82 41.5 -122.5t106.5 -40.5t106 40z" />
    <glyph glyph-name="uni041F" unicode="&#x41f;" horiz-adv-x="730" 
d="M85 7q-7 7 -7 17v651q0 11 6.5 18t17.5 7h526q11 0 17.5 -7t6.5 -18v-651q0 -10 -6.5 -17t-17.5 -7h-93q-10 0 -17 7t-7 17v549h-292v-549q0 -10 -7 -17t-18 -7h-92q-10 0 -17 7z" />
    <glyph glyph-name="uni0420" unicode="&#x420;" horiz-adv-x="660" 
d="M85 7q-7 7 -7 17v651q0 11 6.5 18t17.5 7h268q121 0 190 -57t69 -166q0 -108 -69 -163.5t-190 -55.5h-147v-234q0 -11 -7 -17.5t-18 -6.5h-96q-10 0 -17 7zM365 370q58 0 88.5 27.5t30.5 80.5q0 52 -29.5 81t-89.5 29h-144v-218h144z" />
    <glyph glyph-name="uni0421" unicode="&#x421;" horiz-adv-x="685" 
d="M134.5 60.5q-75.5 70.5 -80.5 200.5q-1 27 -1 88q0 62 1 90q5 128 81 199.5t213 71.5q89 0 155 -30.5t102.5 -83.5t38.5 -119v-2q0 -8 -6.5 -13.5t-14.5 -5.5h-97q-12 0 -18 5.5t-10 19.5q-15 62 -52 87.5t-98 25.5q-143 0 -149 -160q-1 -27 -1 -83t1 -85
q6 -160 149 -160q60 0 97.5 25.5t52.5 87.5q4 14 10 19.5t18 5.5h97q9 0 15.5 -6t5.5 -15q-2 -66 -38.5 -119t-102.5 -83.5t-155 -30.5q-138 0 -213.5 70.5z" />
    <glyph glyph-name="uni0422" unicode="&#x422;" horiz-adv-x="606" 
d="M239 7q-7 7 -7 17v551h-185q-10 0 -17 7t-7 18v75q0 11 6.5 18t17.5 7h511q11 0 18 -7t7 -18v-75q0 -11 -7 -18t-18 -7h-184v-551q0 -10 -6.5 -17t-17.5 -7h-94q-10 0 -17 7z" />
    <glyph glyph-name="uni0423" unicode="&#x423;" horiz-adv-x="621" 
d="M615 694q6 -6 6 -14q0 -10 -4 -17l-201 -459q-35 -80 -64 -122t-70.5 -62t-108.5 -20h-47q-10 0 -17 7t-7 17v76q0 10 7 17t17 7h37q34 0 57.5 18t45.5 60l-253 466q-2 8 -2 10q0 9 6.5 15.5t15.5 6.5h100q17 0 26 -19l176 -328l143 328q7 19 28 19h94q9 0 15 -6z" />
    <glyph glyph-name="uni0424" unicode="&#x424;" horiz-adv-x="893" 
d="M383 -25.5q-7 6.5 -7 17.5v74q-300 0 -322 262l-1 36l1 36q7 128 92 196t230 68v62q0 11 7 17.5t17 6.5h93q11 0 17.5 -6.5t6.5 -17.5v-62q145 0 230 -68t92 -196q1 -16 1 -41q0 -19 -1 -31q-21 -262 -322 -262v-74q0 -11 -6.5 -17.5t-17.5 -6.5h-93q-10 0 -17 6.5z
M377 547q-83 0 -127 -36.5t-51 -114.5l-1 -31l1 -32q9 -151 178 -151v365zM694 333q1 10 1 37q0 19 -1 26q-7 78 -51.5 114.5t-126.5 36.5v-365q171 0 178 151z" />
    <glyph glyph-name="uni0425" unicode="&#x425;" horiz-adv-x="663" 
d="M23.5 6q-6.5 6 -6.5 15q0 4 4 12l223 324l-209 310q-4 6 -4 12q0 9 6.5 15t14.5 6h105q18 0 31 -19l146 -214l147 214q11 19 31 19h99q8 0 14.5 -6t6.5 -15q0 -4 -4 -12l-209 -310l224 -324q3 -6 3 -12q0 -9 -6 -15t-15 -6h-107q-18 0 -31 18l-158 225l-156 -225
q-13 -18 -31 -18h-104q-8 0 -14.5 6z" />
    <glyph glyph-name="uni0426" unicode="&#x426;" horiz-adv-x="758" 
d="M591 -133.5q-7 6.5 -7 17.5v116h-482q-11 0 -17.5 7t-6.5 18v651q0 11 7 17.5t17 6.5h92q11 0 18 -7t7 -17v-549h292v549q0 10 7 17t17 7h93q11 0 17.5 -6.5t6.5 -17.5v-549h48q11 0 18 -7t7 -17v-219q0 -11 -7 -17.5t-18 -6.5h-92q-10 0 -17 6.5z" />
    <glyph glyph-name="uni0427" unicode="&#x427;" horiz-adv-x="678" 
d="M462 7q-7 7 -7 17v235q-22 -22 -67 -33t-93 -11q-124 0 -184.5 59t-59.5 177v225q0 11 7 17.5t17 6.5h92q11 0 18 -6.5t7 -17.5v-218q0 -59 30 -86t100 -27q50 0 91.5 18.5t41.5 61.5v251q0 11 7 17.5t17 6.5h92q11 0 18 -6.5t7 -17.5v-652q0 -11 -7 -17.5t-18 -6.5h-92
q-10 0 -17 7z" />
    <glyph glyph-name="uni0428" unicode="&#x428;" horiz-adv-x="973" 
d="M85 7q-7 7 -7 17v652q0 11 7 17.5t17 6.5h92q11 0 18 -7t7 -17v-549h197v549q0 10 7 17t18 7h92q11 0 17.5 -6.5t6.5 -17.5v-549h198v549q0 11 7 17.5t17 6.5h92q11 0 18 -7t7 -17v-652q0 -10 -7 -17t-18 -7h-769q-10 0 -17 7z" />
    <glyph glyph-name="uni0429" unicode="&#x429;" horiz-adv-x="1001" 
d="M834 -133q-7 7 -7 17v116h-725q-10 0 -17 7t-7 17v652q0 11 7 17.5t17 6.5h92q11 0 18 -7t7 -17v-549h197v549q0 10 7 17t18 7h92q11 0 17.5 -6.5t6.5 -17.5v-549h198v549q0 11 7 17.5t17 6.5h92q11 0 18 -7t7 -17v-549h48q10 0 17 -7t7 -17v-219q0 -11 -6.5 -17.5
t-17.5 -6.5h-93q-10 0 -17 7z" />
    <glyph glyph-name="uni042A" unicode="&#x42a;" horiz-adv-x="741" 
d="M199 7q-7 7 -7 17v560h-145q-10 0 -17 7t-7 17v67q0 11 6.5 18t17.5 7h262q11 0 17.5 -6.5t6.5 -17.5v-228h122q120 0 185 -56t65 -165q0 -65 -28.5 -116.5t-85 -81t-136.5 -29.5h-239q-10 0 -17 7zM449 113q52 0 81.5 31.5t29.5 83.5q0 53 -28 80.5t-83 27.5h-116v-223
h116z" />
    <glyph glyph-name="uni042B" unicode="&#x42b;" horiz-adv-x="886" 
d="M85 7q-7 7 -7 17v652q0 11 7 17.5t17 6.5h92q11 0 18 -7t7 -17v-228h110q120 0 185 -56t65 -165q0 -65 -28.5 -116.5t-85 -81t-136.5 -29.5h-227q-10 0 -17 7zM672 7q-7 7 -7 17v652q0 11 7 17.5t17 6.5h96q11 0 17.5 -6.5t6.5 -17.5v-652q0 -10 -6.5 -17t-17.5 -7h-96
q-10 0 -17 7zM323 113q52 0 81.5 31.5t29.5 83.5q0 53 -28 80.5t-83 27.5h-104v-223h104z" />
    <glyph glyph-name="uni042C" unicode="&#x42c;" horiz-adv-x="632" 
d="M85 7q-7 7 -7 17v652q0 11 7 17.5t17 6.5h92q11 0 18 -7t7 -17v-228h128q120 0 185 -56.5t65 -164.5q0 -65 -28.5 -116.5t-85 -81t-136.5 -29.5h-245q-10 0 -17 7zM341 113q52 0 81.5 31.5t29.5 83.5q0 53 -28.5 80.5t-82.5 27.5h-122v-223h122z" />
    <glyph glyph-name="uni042D" unicode="&#x42d;" horiz-adv-x="667" 
d="M187.5 12.5q-60.5 22.5 -98 64t-43.5 98.5v2q0 8 6.5 13.5t14.5 5.5h93q11 0 16.5 -4t10.5 -15q11 -32 45 -52t89 -20q70 0 108.5 45.5t38.5 126.5v19h-218q-10 0 -17 7.5t-7 17.5v58q0 11 7 18.5t17 7.5h218v17q0 172 -147 172q-55 0 -88.5 -20t-43.5 -52
q-5 -11 -10 -15t-16 -4h-94q-9 0 -15.5 6t-5.5 15q10 88 85.5 137t190.5 49q130 0 207.5 -71.5t81.5 -219.5q2 -54 2 -69t-2 -69q-4 -149 -80.5 -220t-208.5 -71q-76 0 -136.5 22.5z" />
    <glyph glyph-name="uni042E" unicode="&#x42e;" horiz-adv-x="996" 
d="M436.5 61q-72.5 71 -80.5 193q-2 26 -2 37h-135v-267q0 -10 -7 -17t-18 -7h-92q-10 0 -17 7t-7 17v652q0 11 7 17.5t17 6.5h92q11 0 18 -7t7 -17v-258h136l1 31q10 118 82.5 189.5t209.5 71.5q141 0 214.5 -75.5t78.5 -199.5q2 -58 2 -86q0 -27 -2 -85
q-5 -127 -78 -200.5t-215 -73.5q-139 0 -211.5 71zM754 145q39 39 42 121q2 60 2 84q0 26 -2 84q-3 82 -42.5 121t-105.5 39t-105.5 -39t-42.5 -121q-1 -29 -1 -84q0 -54 1 -84q3 -82 42 -121t106 -39t106 39z" />
    <glyph glyph-name="uni042F" unicode="&#x42f;" horiz-adv-x="682" 
d="M597.5 693.5q6.5 -6.5 6.5 -17.5v-652q0 -10 -6.5 -17t-17.5 -7h-92q-11 0 -18 6.5t-7 17.5v228h-110l-133 -225q-6 -13 -15 -20t-25 -7h-92q-8 0 -14.5 6t-6.5 15q0 5 3 11l145 237q-63 24 -98 76.5t-35 128.5q0 63 28.5 114.5t85 81.5t136.5 30h248q11 0 17.5 -6.5z
M463 588h-126q-52 0 -81 -31.5t-29 -83.5q0 -106 110 -106h126v221z" />
    <glyph glyph-name="uni0430" unicode="&#x430;" horiz-adv-x="572" 
d="M123.5 10.5q-42.5 20.5 -67 55.5t-24.5 77q0 68 55 110t151 57l137 20v21q0 43 -22 65t-70 22q-33 0 -53 -12t-32.5 -24.5l-16.5 -16.5q-4 -12 -15 -12h-78q-9 0 -15.5 6t-6.5 16q1 25 24.5 56.5t72.5 55t121 23.5q118 0 172 -53t54 -139v-314q0 -10 -6.5 -17t-17.5 -7
h-83q-10 0 -17 7t-7 17v39q-22 -32 -62 -52.5t-100 -20.5q-51 0 -93.5 20.5zM341 122q35 36 35 104v20l-100 -16q-115 -18 -115 -77q0 -32 26.5 -49.5t63.5 -17.5q55 0 90 36z" />
    <glyph glyph-name="uni0431" unicode="&#x431;" horiz-adv-x="598" 
d="M554 237q0 -13 -2 -31q-5 -100 -69 -158t-181 -58q-124 0 -185 64.5t-66 191.5l-1 60l1 60q3 142 44 213t119 103.5t253 74.5l6 1q8 0 14.5 -5.5t7.5 -13.5l13 -67l1 -6q0 -8 -5 -14t-13 -8q-20 -4 -30 -7q-121 -26 -172.5 -44.5t-78.5 -56t-31 -114.5q24 30 63.5 48
t83.5 18q105 0 163 -58t63 -158q2 -22 2 -35zM415 237q0 21 -1 30q-2 62 -29.5 95t-75.5 33q-54 0 -86 -33.5t-34 -94.5l-1 -30l1 -26q2 -63 31 -95.5t82 -32.5t81.5 32.5t30.5 95.5q1 7 1 26z" />
    <glyph glyph-name="uni0432" unicode="&#x432;" horiz-adv-x="585" 
d="M73 7q-7 7 -7 17v472q0 11 7 17.5t17 6.5h222q104 0 156.5 -38t52.5 -106q0 -40 -15 -63.5t-45 -41.5q35 -16 54.5 -48t19.5 -72q0 -73 -54 -112t-158 -39h-233q-10 0 -17 7zM310 308q40 0 63 17t23 48q0 30 -22 43t-64 13h-115v-121h115zM315 91q41 0 64 15t23 46
q0 33 -21.5 47.5t-65.5 14.5h-120v-123h120z" />
    <glyph glyph-name="uni0433" unicode="&#x433;" horiz-adv-x="446" 
d="M73 7q-7 7 -7 17v472q0 11 7 17.5t17 6.5h317q11 0 17.5 -6.5t6.5 -17.5v-59q0 -10 -6.5 -17t-17.5 -7h-208v-389q0 -10 -7 -17t-17 -7h-85q-10 0 -17 7z" />
    <glyph glyph-name="uni0434" unicode="&#x434;" horiz-adv-x="629" 
d="M29 -103.5q-7 6.5 -7 17.5v169q0 11 7 17.5t17 6.5h8q39 0 57 62t18 192v135q0 11 7 17.5t17 6.5h358q11 0 17.5 -6.5t6.5 -17.5v-388h45q11 0 17.5 -6.5t6.5 -17.5v-170q0 -11 -6.5 -17.5t-17.5 -6.5h-85q-10 0 -17 6.5t-7 17.5v86h-316v-86q0 -11 -6.5 -17.5
t-17.5 -6.5h-85q-10 0 -17 6.5zM402 108v305h-146v-67q0 -172 -46 -239z" />
    <glyph glyph-name="uni0435" unicode="&#x435;" horiz-adv-x="578" 
d="M113.5 54q-65.5 64 -69.5 182l-1 25q0 125 65.5 197t181.5 72q119 0 183.5 -72t64.5 -192v-21q0 -10 -7 -17t-18 -7h-332v-8q2 -56 30.5 -92.5t78.5 -36.5q57 0 93 46q9 11 14 13.5t17 2.5h88q9 0 15.5 -5t6.5 -14q0 -24 -28.5 -56.5t-81.5 -56.5t-123 -24
q-112 0 -177.5 64zM400 306v2q0 59 -29.5 94.5t-80.5 35.5t-80 -35.5t-29 -94.5v-2h219z" />
    <glyph glyph-name="uni0436" unicode="&#x436;" horiz-adv-x="859" 
d="M838 18q0 -8 -5.5 -13t-15.5 -5h-103q-15 0 -28 15l-130 196h-60v-187q0 -10 -7 -17t-17 -7h-83q-10 0 -17 7t-7 17v187h-61l-131 -196q-12 -15 -28 -15h-103q-9 0 -15 5t-6 13q0 5 4 13l166 239l-144 219q-4 5 -4 13t5.5 13t15.5 5h91q10 0 16 -4t12 -12l119 -186h63
v178q0 11 7 17.5t17 6.5h83q10 0 17 -7t7 -17v-178h60l121 186q10 16 27 16h91q10 0 16 -5t6 -13q0 -6 -5 -13l-144 -219l166 -239q4 -5 4 -13z" />
    <glyph glyph-name="uni0437" unicode="&#x437;" horiz-adv-x="536" 
d="M136.5 14q-49.5 24 -72 57.5t-25.5 67.5v1q0 7 5.5 12t13.5 5h83q18 0 26 -17q9 -28 35 -40.5t69 -12.5t69.5 17t26.5 51q0 67 -81 67h-55q-10 0 -16 6.5t-6 15.5v43q0 9 6 15.5t16 6.5h51q36 0 54 13.5t18 42.5t-21.5 48t-66.5 19t-65.5 -14t-30.5 -45q-8 -17 -26 -17
h-80q-8 0 -14 5.5t-5 12.5q2 40 25.5 75.5t72.5 58t123 22.5q111 0 163.5 -43t52.5 -104q0 -39 -14.5 -65t-48.5 -43q80 -30 80 -131q0 -73 -63 -113.5t-170 -40.5q-80 0 -129.5 24z" />
    <glyph glyph-name="uni0438" unicode="&#x438;" horiz-adv-x="624" 
d="M557 513.5q7 -6.5 7 -15.5v-474q0 -10 -6.5 -17t-17.5 -7h-85q-10 0 -17 7t-7 17v319l-237 -327q-11 -16 -28 -16h-77q-10 0 -16.5 6.5t-6.5 16.5v473q0 11 7 17.5t17 6.5h85q10 0 17 -7t7 -17v-319l237 327q12 16 28 16h77q9 0 16 -6.5z" />
    <glyph glyph-name="uni0439" unicode="&#x439;" horiz-adv-x="624" 
d="M557 513.5q7 -6.5 7 -15.5v-474q0 -10 -6.5 -17t-17.5 -7h-85q-10 0 -17 7t-7 17v319l-237 -327q-11 -16 -28 -16h-77q-10 0 -16.5 6.5t-6.5 16.5v473q0 11 7 17.5t17 6.5h85q10 0 17 -7t7 -17v-319l237 327q12 16 28 16h77q9 0 16 -6.5zM197 625.5q-39 37.5 -39 97.5
q0 8 5 13.5t14 5.5h58q9 0 14 -5.5t5 -13.5q0 -58 67 -58q68 0 68 58q0 8 5 13.5t14 5.5h58q9 0 14 -5.5t5 -13.5q0 -60 -39 -97.5t-125 -37.5q-85 0 -124 37.5z" />
    <glyph glyph-name="uni043A" unicode="&#x43a;" horiz-adv-x="573" 
d="M552 18q0 -8 -6 -13t-15 -5h-103q-10 0 -16 3.5t-12 11.5l-130 195h-73v-186q0 -10 -6.5 -17t-17.5 -7h-83q-10 0 -17 7t-7 17v472q0 11 7 17.5t17 6.5h83q11 0 17.5 -6.5t6.5 -17.5v-178h74l119 186q6 8 12 12t15 4h92q10 0 16 -5t6 -13q0 -3 -5 -13l-142 -220l163 -238
q5 -7 5 -13z" />
    <glyph glyph-name="uni043B" unicode="&#x43b;" horiz-adv-x="604" 
d="M32.5 7.5q-7.5 7.5 -7.5 17.5v64q0 10 6.5 16t16.5 7q44 3 63 61t19 188v135q0 11 7 17.5t17 6.5h357q11 0 17.5 -6.5t6.5 -17.5v-472q0 -10 -6.5 -17t-17.5 -7h-85q-10 0 -17 7t-7 17v389h-145v-67q0 -130 -20 -204.5t-64.5 -108t-122.5 -33.5q-10 0 -17.5 7.5z" />
    <glyph glyph-name="uni043C" unicode="&#x43c;" horiz-adv-x="704" 
d="M629 514.5q6 -5.5 6 -13.5v-480q0 -9 -6 -15t-15 -6h-89q-9 0 -15 6t-6 15v277l-106 -194q-7 -12 -13.5 -18t-17.5 -6h-33q-11 0 -17.5 6t-14.5 18l-105 190v-273q0 -9 -6 -15t-16 -6h-88q-9 0 -15 6t-6 15v480q0 7 6 13t14 6h85q17 0 26 -17l153 -278l153 278
q9 17 27 17h85q8 0 14 -5.5z" />
    <glyph glyph-name="uni043D" unicode="&#x43d;" horiz-adv-x="624" 
d="M73 7q-7 7 -7 17v472q0 11 7 17.5t17 6.5h85q10 0 17 -7t7 -17v-178h223v178q0 10 7 17t17 7h85q11 0 17.5 -6.5t6.5 -17.5v-472q0 -10 -6.5 -17t-17.5 -7h-85q-10 0 -17 7t-7 17v187h-223v-187q0 -10 -7 -17t-17 -7h-85q-10 0 -17 7z" />
    <glyph glyph-name="uni043E" unicode="&#x43e;" horiz-adv-x="593" 
d="M115 50q-64 60 -69 166l-1 44l1 44q5 105 70 165.5t181 60.5q115 0 180 -60.5t70 -165.5q1 -12 1 -44t-1 -44q-5 -106 -69 -166t-181 -60q-118 0 -182 60zM378.5 124q28.5 33 30.5 97q1 10 1 39t-1 39q-2 64 -31 97.5t-81 33.5q-53 0 -82 -33.5t-31 -97.5l-1 -39l1 -39
q2 -64 31 -97t82 -33t81.5 33z" />
    <glyph glyph-name="uni043F" unicode="&#x43f;" horiz-adv-x="612" 
d="M73 7q-7 7 -7 17v472q0 11 7 17.5t17 6.5h429q11 0 17.5 -6.5t6.5 -17.5v-472q0 -10 -6.5 -17t-17.5 -7h-84q-10 0 -17 7t-7 17v389h-212v-389q0 -10 -7 -17t-17 -7h-85q-10 0 -17 7z" />
    <glyph glyph-name="uni0440" unicode="&#x440;" horiz-adv-x="614" 
d="M74 -183.5q-7 6.5 -7 17.5v662q0 11 7 17.5t17 6.5h80q11 0 18 -7t7 -17v-40q53 74 159 74q101 0 155 -63.5t58 -170.5q1 -12 1 -36t-1 -36q-3 -105 -57.5 -169.5t-155.5 -64.5q-100 0 -153 71v-227q0 -11 -6.5 -17.5t-17.5 -6.5h-87q-10 0 -17 6.5zM431 230q1 10 1 30
t-1 30q-7 132 -114 132q-57 0 -85 -37t-30 -90q-1 -12 -1 -38t1 -39q2 -50 31 -85t84 -35q107 0 114 132z" />
    <glyph glyph-name="uni0441" unicode="&#x441;" horiz-adv-x="572" 
d="M115.5 51q-65.5 61 -69.5 169l-1 40l1 40q4 108 69.5 169t175.5 61q79 0 133.5 -28t81 -68.5t28.5 -77.5q1 -10 -6.5 -17t-17.5 -7h-89q-11 0 -16 4.5t-10 16.5q-15 38 -39.5 55t-62.5 17q-51 0 -79.5 -32t-30.5 -98l-1 -37l1 -33q6 -130 110 -130q39 0 63 16.5t39 55.5
q4 11 9.5 16t16.5 5h89q10 0 17.5 -7t6.5 -17q-2 -35 -28 -75.5t-80 -69.5t-135 -29q-110 0 -175.5 61z" />
    <glyph glyph-name="uni0442" unicode="&#x442;" horiz-adv-x="531" 
d="M207 7q-7 7 -7 17v389h-162q-10 0 -17 7t-7 17v59q0 11 7 17.5t17 6.5h455q11 0 17.5 -6.5t6.5 -17.5v-59q0 -10 -6.5 -17t-17.5 -7h-162v-389q0 -10 -6.5 -17t-17.5 -7h-83q-10 0 -17 7z" />
    <glyph glyph-name="uni0443" unicode="&#x443;" horiz-adv-x="572" 
d="M542.5 514q6.5 -6 6.5 -14q0 -9 -4 -16l-190 -454q-31 -73 -56 -117.5t-62 -73.5t-89 -29h-45q-10 0 -17 7t-7 17v58q0 10 7 17t17 7h31q29 0 44 17t37 68l10 25l-196 458q-4 9 -4 14q0 9 6.5 15.5t15.5 6.5h81q19 0 27 -19l132 -327l136 327q7 19 27 19h78q8 0 14.5 -6z
" />
    <glyph glyph-name="uni0444" unicode="&#x444;" horiz-adv-x="764" 
d="M323 -183.5q-7 6.5 -7 17.5v166q-131 0 -197.5 58.5t-72.5 163.5l-1 38l1 38q6 104 74 163t196 59v166q0 11 7 17.5t17 6.5h84q11 0 17.5 -6.5t6.5 -17.5v-166q128 0 196 -59t74 -163q1 -12 1 -38t-1 -38q-6 -105 -72.5 -163.5t-197.5 -58.5v-166q0 -11 -6.5 -17.5
t-17.5 -6.5h-84q-10 0 -17 6.5zM317 419q-69 0 -102.5 -32t-36.5 -98l-1 -29q0 -83 32.5 -121t107.5 -38v318zM549 132.5q33 31.5 37 98.5q1 9 1 29t-1 29q-3 66 -36.5 98t-101.5 32v-318q68 0 101 31.5z" />
    <glyph glyph-name="uni0445" unicode="&#x445;" horiz-adv-x="565" 
d="M28.5 6.5q-6.5 6.5 -6.5 15.5t6 17l171 228l-158 214q-6 8 -6 17t6.5 15.5t15.5 6.5h88q11 0 16.5 -4.5t11.5 -12.5l112 -149l111 149q1 1 7.5 9t20.5 8h85q9 0 15 -6.5t6 -14.5q0 -10 -6 -18l-160 -215l172 -227q6 -8 6 -17t-6.5 -15.5t-15.5 -6.5h-92q-16 0 -27 16
l-120 158l-121 -158q-11 -16 -27 -16h-89q-9 0 -15.5 6.5z" />
    <glyph glyph-name="uni0446" unicode="&#x446;" horiz-adv-x="638" 
d="M487 -115q-7 7 -7 17v98h-390q-10 0 -17 7t-7 17v472q0 11 7 17.5t17 6.5h85q10 0 17 -7t7 -17v-389h212v389q0 11 7 17.5t17 6.5h84q11 0 17.5 -6.5t6.5 -17.5v-389h45q11 0 17.5 -6.5t6.5 -17.5v-181q0 -10 -7 -17t-17 -7h-84q-10 0 -17 7z" />
    <glyph glyph-name="uni0447" unicode="&#x447;" horiz-adv-x="579" 
d="M378 7q-7 7 -7 17v170q-49 -43 -144 -43q-94 0 -142 44.5t-48 139.5v161q0 11 7 17.5t17 6.5h87q11 0 17.5 -6.5t6.5 -17.5v-154q0 -40 21 -57t69 -17q109 0 109 58v170q0 11 7 17.5t17 6.5h91q11 0 17.5 -6.5t6.5 -17.5v-472q0 -10 -6.5 -17t-17.5 -7h-91q-10 0 -17 7z
" />
    <glyph glyph-name="uni0448" unicode="&#x448;" horiz-adv-x="810" 
d="M73 7q-7 7 -7 17v472q0 11 7 17.5t17 6.5h80q11 0 18 -7t7 -17v-389h147v389q0 10 7 17t17 7h75q10 0 17 -7t7 -17v-389h147v389q0 10 7 17t18 7h80q11 0 17.5 -6.5t6.5 -17.5v-472q0 -10 -6.5 -17t-17.5 -7h-627q-10 0 -17 7z" />
    <glyph glyph-name="uni0449" unicode="&#x449;" horiz-adv-x="835" 
d="M685 -115q-7 7 -7 17v98h-588q-10 0 -17 7t-7 17v472q0 11 7 17.5t17 6.5h80q11 0 18 -7t7 -17v-389h147v389q0 10 7 17t17 7h75q10 0 17 -7t7 -17v-389h147v389q0 10 7 17t18 7h80q11 0 17.5 -6.5t6.5 -17.5v-389h45q11 0 17.5 -6.5t6.5 -17.5v-181q0 -10 -7 -17t-17 -7
h-84q-10 0 -17 7z" />
    <glyph glyph-name="uni044A" unicode="&#x44a;" horiz-adv-x="612" 
d="M166 7q-7 7 -7 17v389h-121q-10 0 -17 7t-7 17v59q0 11 7 17.5t17 6.5h230q11 0 17.5 -6.5t6.5 -17.5v-140h92q100 0 151.5 -47.5t51.5 -133.5q0 -87 -54 -131t-158 -44h-192q-10 0 -17 7zM372 96q50 0 72.5 18t22.5 61t-23 64t-72 21h-82v-164h82z" />
    <glyph glyph-name="uni044B" unicode="&#x44b;" horiz-adv-x="768" 
d="M73 7q-7 7 -7 17v472q0 11 7 17.5t17 6.5h85q11 0 17.5 -6.5t6.5 -17.5v-140h98q99 0 151 -48t52 -133q0 -87 -54 -131t-158 -44h-198q-10 0 -17 7zM574 7q-7 7 -7 17v472q0 11 7 17.5t17 6.5h85q10 0 17 -7t7 -17v-472q0 -10 -7 -17t-17 -7h-85q-10 0 -17 7zM285 96
q50 0 72.5 18t22.5 61t-23 64t-72 21h-88v-164h88z" />
    <glyph glyph-name="uni044C" unicode="&#x44c;" horiz-adv-x="531" 
d="M73 7q-7 7 -7 17v472q0 11 7 17.5t17 6.5h85q11 0 17.5 -6.5t6.5 -17.5v-140h103q100 0 152 -48t52 -133q0 -87 -54 -131t-158 -44h-204q-10 0 -17 7zM291 96q50 0 72 18t22 61t-22.5 64t-71.5 21h-94v-164h94z" />
    <glyph glyph-name="uni044D" unicode="&#x44d;" horiz-adv-x="576" 
d="M147 14.5q-51 24.5 -74.5 60.5t-26.5 74v3q0 7 6 12t13 5h81q10 0 15 -3.5t11 -13.5q15 -35 40 -50t65 -15q108 0 111 124v6h-168q-9 0 -15 6.5t-6 15.5v43q0 9 6 15.5t15 6.5h168v5q-1 61 -30.5 92t-80.5 31q-40 0 -65.5 -15t-40.5 -50q-5 -10 -10 -13.5t-16 -3.5h-78
q-9 0 -15 5.5t-5 14.5q3 38 27 74t74.5 61t128.5 25q115 0 180 -59t70 -168q1 -12 1 -43t-1 -43q-5 -110 -68.5 -168.5t-181.5 -58.5q-79 0 -130 24.5z" />
    <glyph glyph-name="uni044E" unicode="&#x44e;" horiz-adv-x="836" 
d="M791 260q0 -32 -1 -44q-5 -106 -69 -166t-181 -60q-116 0 -180 59t-71 162h-90v-187q0 -10 -7 -17t-17 -7h-85q-10 0 -17 7t-7 17v472q0 11 7 17.5t17 6.5h85q10 0 17 -7t7 -17v-178h91q9 99 73.5 155.5t176.5 56.5q115 0 180 -60.5t70 -165.5q1 -12 1 -44zM653 260
q0 29 -1 39q-2 64 -31 97.5t-81 33.5q-53 0 -82 -33.5t-31 -97.5l-1 -39l1 -39q2 -64 31 -97t82 -33t81.5 33t30.5 97q1 10 1 39z" />
    <glyph glyph-name="uni044F" unicode="&#x44f;" horiz-adv-x="576" 
d="M500.5 513.5q6.5 -6.5 6.5 -17.5v-472q0 -10 -6.5 -17t-17.5 -7h-87q-10 0 -17 7t-7 17v152h-89l-97 -161q-9 -15 -25 -15h-86q-8 0 -14 6t-6 14q0 9 6 16l105 164q-47 20 -71 59t-24 92q0 84 52.5 126.5t153.5 42.5h206q11 0 17.5 -6.5zM374 424h-94q-47 0 -68 -16.5
t-21 -56.5q0 -37 21 -58t62 -21h100v152z" />
    <glyph glyph-name="uni0450" unicode="&#x450;" horiz-adv-x="578" 
d="M113.5 54q-65.5 64 -69.5 182l-1 25q0 125 65.5 197t181.5 72q119 0 183.5 -72t64.5 -192v-21q0 -10 -7 -17t-18 -7h-332v-8q2 -56 30.5 -92.5t78.5 -36.5q57 0 93 46q9 11 14 13.5t17 2.5h88q9 0 15.5 -5t6.5 -14q0 -24 -28.5 -56.5t-81.5 -56.5t-123 -24
q-112 0 -177.5 64zM400 306v2q0 59 -29.5 94.5t-80.5 35.5t-80 -35.5t-29 -94.5v-2h219zM248.5 598q-7.5 3 -16.5 10l-125 102q-5 5 -5 12q0 9 5 14.5t14 5.5h101q13 0 20.5 -4t16.5 -15l82 -99q5 -5 5 -13q0 -16 -16 -16h-63q-11 0 -18.5 3z" />
    <glyph glyph-name="uni0451" unicode="&#x451;" horiz-adv-x="578" 
d="M113.5 54q-65.5 64 -69.5 182l-1 25q0 125 65.5 197t181.5 72q119 0 183.5 -72t64.5 -192v-21q0 -10 -7 -17t-18 -7h-332v-8q2 -56 30.5 -92.5t78.5 -36.5q57 0 93 46q9 11 14 13.5t17 2.5h88q9 0 15.5 -5t6.5 -14q0 -24 -28.5 -56.5t-81.5 -56.5t-123 -24
q-112 0 -177.5 64zM400 306v2q0 59 -29.5 94.5t-80.5 35.5t-80 -35.5t-29 -94.5v-2h219zM145 620q-6 6 -6 16v74q0 10 6 16.5t16 6.5h74q10 0 16.5 -6.5t6.5 -16.5v-74q0 -10 -6.5 -16t-16.5 -6h-74q-10 0 -16 6zM334 620q-6 6 -6 16v74q0 10 6 16.5t16 6.5h74
q10 0 16.5 -6.5t6.5 -16.5v-74q0 -10 -6.5 -16t-16.5 -6h-74q-10 0 -16 6z" />
    <glyph glyph-name="uni0452" unicode="&#x452;" horiz-adv-x="629" 
d="M287 -183.5q-7 6.5 -7 17.5v59q0 10 7 17t17 7h11q74 0 98.5 45t24.5 133v156q0 58 -28.5 90.5t-81.5 32.5q-52 0 -83 -32.5t-31 -90.5v-227q0 -10 -6.5 -17t-17.5 -7h-91q-10 0 -17 7t-7 17v516h-45q-10 0 -17 7t-7 17v29q0 10 7 17t17 7h45v69q0 11 7 17.5t17 6.5h91
q11 0 17.5 -6.5t6.5 -17.5v-69h149q11 0 17.5 -6.5t6.5 -17.5v-29q0 -10 -6.5 -17t-17.5 -7h-149v-129q60 72 162 72q96 0 149 -62.5t53 -163.5v-164q0 -132 -61.5 -207.5t-189.5 -75.5h-23q-10 0 -17 6.5z" />
    <glyph glyph-name="uni0453" unicode="&#x453;" horiz-adv-x="446" 
d="M73 7q-7 7 -7 17v472q0 11 7 17.5t17 6.5h317q11 0 17.5 -6.5t6.5 -17.5v-59q0 -10 -6.5 -17t-17.5 -7h-208v-389q0 -10 -7 -17t-17 -7h-85q-10 0 -17 7zM203 611q0 8 5 13l82 99q9 11 16.5 15t20.5 4h101q9 0 14 -5.5t5 -14.5q0 -7 -5 -12l-125 -102q-9 -7 -16.5 -10
t-18.5 -3h-63q-16 0 -16 16z" />
    <glyph glyph-name="uni0454" unicode="&#x454;" horiz-adv-x="576" 
d="M117.5 48.5q-63.5 58.5 -68.5 168.5v86q5 109 69.5 168t180.5 59q74 0 124.5 -23t76 -59.5t29.5 -77.5v-2q0 -8 -6 -13t-14 -5h-78q-9 0 -13.5 3t-9.5 11q-18 37 -43.5 52.5t-65.5 15.5q-50 0 -80 -30.5t-31 -92.5v-5h168q9 0 15 -6.5t6 -15.5v-43q0 -10 -6 -16t-15 -6
h-168v-6q3 -124 111 -124q41 0 66 15t43 53q4 8 8.5 11t13.5 3h81q8 0 14 -6t5 -14q-7 -66 -64 -112.5t-167 -46.5q-118 0 -181.5 58.5z" />
    <glyph glyph-name="uni0455" unicode="&#x455;" horiz-adv-x="533" 
d="M137 13q-51 23 -75.5 53.5t-24.5 52.5q0 10 6.5 16t15.5 6h82q8 0 14 -8q5 -4 22.5 -19t40 -23.5t49.5 -8.5q40 0 65 15.5t25 44.5q0 20 -11.5 32.5t-41 23t-88.5 23.5q-85 18 -125.5 55t-40.5 98q0 40 24 75.5t71.5 58t113.5 22.5q68 0 117 -21.5t74.5 -51.5t25.5 -53
q0 -9 -6.5 -15.5t-15.5 -6.5h-75q-11 0 -17 8q-7 5 -22.5 18.5t-34.5 21.5t-46 8q-37 0 -57 -16t-20 -42q0 -18 9.5 -30t38.5 -22.5t87 -21.5q180 -35 180 -157q0 -71 -61.5 -115t-171.5 -44q-76 0 -127 23z" />
    <glyph glyph-name="uni0456" unicode="&#x456;" horiz-adv-x="265" 
d="M69 612q-7 7 -7 17v73q0 11 7 18t17 7h92q11 0 18 -7t7 -18v-73q0 -10 -7.5 -17t-17.5 -7h-92q-10 0 -17 7zM73 7q-7 7 -7 17v472q0 11 7 17.5t17 6.5h85q10 0 17 -7t7 -17v-472q0 -10 -7 -17t-17 -7h-85q-10 0 -17 7z" />
    <glyph glyph-name="uni0457" unicode="&#x457;" horiz-adv-x="265" 
d="M73 7q-7 7 -7 17v472q0 11 7 17.5t17 6.5h85q10 0 17 -7t7 -17v-472q0 -10 -7 -17t-17 -7h-85q-10 0 -17 7zM-15 620q-6 6 -6 16v74q0 10 6 16.5t16 6.5h74q10 0 16.5 -6.5t6.5 -16.5v-74q0 -10 -6.5 -16t-16.5 -6h-74q-10 0 -16 6zM174 620q-6 6 -6 16v74q0 10 6 16.5
t16 6.5h74q10 0 16.5 -6.5t6.5 -16.5v-74q0 -10 -6.5 -16t-16.5 -6h-74q-10 0 -16 6z" />
    <glyph glyph-name="uni0458" unicode="&#x458;" horiz-adv-x="280" 
d="M79 612q-7 7 -7 17v73q0 10 7 17.5t17 7.5h97q10 0 17 -7t7 -18v-73q0 -10 -7 -17t-17 -7h-97q-10 0 -17 7zM-37.5 -183.5q-6.5 6.5 -6.5 17.5v59q0 10 6.5 17t17.5 7h26q42 0 56.5 21.5t14.5 63.5v494q0 11 7 17.5t17 6.5h88q11 0 17.5 -6.5t6.5 -17.5v-497
q0 -90 -49 -139.5t-145 -49.5h-39q-11 0 -17.5 6.5z" />
    <glyph glyph-name="uni0459" unicode="&#x459;" horiz-adv-x="827" 
d="M398 7q-7 7 -7 17v389h-128v-67q0 -130 -20.5 -203.5t-66.5 -106.5t-126 -35q-10 -1 -17.5 6t-7.5 18v64q0 19 23 24q31 5 50 29.5t28.5 77t9.5 141.5v135q0 11 7 17.5t17 6.5h340q11 0 17.5 -6.5t6.5 -17.5v-140h74q100 0 152 -48t52 -133q0 -87 -54 -131t-158 -44h-175
q-10 0 -17 7zM587 96q50 0 72 18t22 61t-22.5 64t-71.5 21h-65v-164h65z" />
    <glyph glyph-name="uni045A" unicode="&#x45a;" horiz-adv-x="834" 
d="M73 7q-7 7 -7 17v472q0 11 7 17.5t17 6.5h85q10 0 17 -7t7 -17v-178h200v178q0 11 7 17.5t17 6.5h85q10 0 17 -7t7 -17v-140h74q100 0 151.5 -47.5t51.5 -133.5q0 -87 -54 -131t-158 -44h-174q-10 0 -17 7t-7 17v187h-200v-187q0 -10 -7 -17t-17 -7h-85q-10 0 -17 7z
M594 96q50 0 72.5 18t22.5 61t-23 64t-72 21h-64v-164h64z" />
    <glyph glyph-name="uni045B" unicode="&#x45b;" horiz-adv-x="653" 
d="M83 7q-7 7 -7 17v516h-45q-10 0 -17 7t-7 17v29q0 11 7 17.5t17 6.5h45v69q0 11 7 17.5t17 6.5h91q11 0 17.5 -6.5t6.5 -17.5v-69h149q11 0 17.5 -6.5t6.5 -17.5v-29q0 -10 -6.5 -17t-17.5 -7h-149v-129q60 72 161 72q96 0 149 -62.5t53 -163.5v-233q0 -10 -6.5 -17
t-17.5 -7h-91q-11 0 -18 7t-7 17v227q0 58 -28.5 90.5t-81.5 32.5q-52 0 -82.5 -32.5t-30.5 -90.5v-227q0 -10 -6.5 -17t-17.5 -7h-91q-10 0 -17 7z" />
    <glyph glyph-name="uni045C" unicode="&#x45c;" horiz-adv-x="573" 
d="M552 18q0 -8 -6 -13t-15 -5h-103q-10 0 -16 3.5t-12 11.5l-130 195h-73v-186q0 -10 -6.5 -17t-17.5 -7h-83q-10 0 -17 7t-7 17v472q0 11 7 17.5t17 6.5h83q11 0 17.5 -6.5t6.5 -17.5v-178h74l119 186q6 8 12 12t15 4h92q10 0 16 -5t6 -13q0 -3 -5 -13l-142 -220l163 -238
q5 -7 5 -13zM230 611q0 8 5 13l82 99q9 11 16.5 15t20.5 4h101q9 0 14 -5.5t5 -14.5q0 -7 -5 -12l-125 -102q-9 -7 -16.5 -10t-18.5 -3h-63q-16 0 -16 16z" />
    <glyph glyph-name="uni045D" unicode="&#x45d;" horiz-adv-x="624" 
d="M557 513.5q7 -6.5 7 -15.5v-474q0 -10 -6.5 -17t-17.5 -7h-85q-10 0 -17 7t-7 17v319l-237 -327q-11 -16 -28 -16h-77q-10 0 -16.5 6.5t-6.5 16.5v473q0 11 7 17.5t17 6.5h85q10 0 17 -7t7 -17v-319l237 327q12 16 28 16h77q9 0 16 -6.5zM276.5 598q-7.5 3 -16.5 10
l-125 102q-5 5 -5 12q0 9 5 14.5t14 5.5h101q13 0 20.5 -4t16.5 -15l82 -99q5 -5 5 -13q0 -16 -16 -16h-63q-11 0 -18.5 3z" />
    <glyph glyph-name="uni045E" unicode="&#x45e;" horiz-adv-x="572" 
d="M542.5 514q6.5 -6 6.5 -14q0 -9 -4 -16l-190 -454q-31 -73 -56 -117.5t-62 -73.5t-89 -29h-45q-10 0 -17 7t-7 17v58q0 10 7 17t17 7h31q29 0 44 17t37 68l10 25l-196 458q-4 9 -4 14q0 9 6.5 15.5t15.5 6.5h81q19 0 27 -19l132 -327l136 327q7 19 27 19h78q8 0 14.5 -6z
M165 625.5q-39 37.5 -39 97.5q0 8 5 13.5t14 5.5h58q9 0 14 -5.5t5 -13.5q0 -58 67 -58q68 0 68 58q0 8 5 13.5t14 5.5h58q9 0 14 -5.5t5 -13.5q0 -60 -39 -97.5t-125 -37.5q-85 0 -124 37.5z" />
    <glyph glyph-name="uni045F" unicode="&#x45f;" horiz-adv-x="612" 
d="M245 -115q-7 7 -7 17v98h-148q-10 0 -17 7t-7 17v472q0 11 7 17.5t17 6.5h85q10 0 17 -7t7 -17v-389h212v389q0 11 7 17.5t17 6.5h84q11 0 17.5 -6.5t6.5 -17.5v-472q0 -10 -6.5 -17t-17.5 -7h-148v-98q0 -10 -7.5 -17t-17.5 -7h-84q-10 0 -17 7z" />
    <glyph glyph-name="uni0462" unicode="&#x462;" horiz-adv-x="699" 
d="M598 392q65 -56 65 -165q0 -65 -28.5 -116.5t-85 -81t-136.5 -29.5h-244q-11 0 -18 7t-7 17v502h-99q-10 0 -16 6t-6 16v41q0 11 6 17t16 6h99v68q0 10 7 17t18 7h92q11 0 17.5 -6.5t6.5 -17.5v-68h180q11 0 17 -6t6 -17v-41q0 -10 -6.5 -16t-16.5 -6h-180v-78h128
q120 0 185 -56zM489 144.5q29 31.5 29 83.5q0 108 -110 108h-123v-223h123q52 0 81 31.5z" />
    <glyph glyph-name="uni0463" unicode="&#x463;" horiz-adv-x="548" 
d="M471 308q52 -48 52 -133q0 -87 -54 -131t-158 -44h-192q-10 0 -17 7t-7 17v435h-50q-10 0 -17 7t-7 17v30q0 10 7 17t17 7h50v149q0 11 7 17.5t17 6.5h85q11 0 17.5 -6.5t6.5 -17.5v-149h128q10 0 17 -7t7 -17v-30q0 -10 -6.5 -17t-17.5 -7h-128v-103h92q99 0 151 -48z
M380.5 114q22.5 18 22.5 61t-23 64t-72 21h-82v-164h82q50 0 72.5 18z" />
    <glyph glyph-name="uni046A" unicode="&#x46a;" horiz-adv-x="916" 
d="M36 7q-6 7 -6 17q0 4 2 10l80 223q25 71 66.5 101t106.5 32h34l-239 276q-4 5 -4 13t6 14.5t15 6.5h723q9 0 15 -6.5t6 -14.5t-5 -14l-244 -275h35q67 -2 109.5 -32t67.5 -101l80 -223q2 -6 2 -10q0 -10 -6 -17t-16 -7h-96q-23 0 -28 17l-68 193q-13 37 -31 51.5
t-53 14.5h-59v-252q0 -10 -7 -17t-17 -7h-93q-10 0 -17 7t-7 17v252h-60q-34 0 -52.5 -15t-31.5 -51l-68 -193q-5 -17 -28 -17h-96q-10 0 -16 7zM456 395l163 195h-323z" />
    <glyph glyph-name="uni046B" unicode="&#x46b;" horiz-adv-x="829" 
d="M12 5q-6 5 -6 13q0 6 5 13l106 165q33 51 67 70t76 19h35l-155 198q-5 6 -5 15q0 10 6.5 16t14.5 6h515q9 0 15 -6t6 -15t-5 -14l-153 -200h30q45 0 79.5 -18.5t66.5 -67.5l108 -168q4 -5 4 -13t-5.5 -13t-15.5 -5h-102q-10 0 -16 4t-12 11l-97 159q-13 22 -28 29.5
t-39 7.5h-27v-187q0 -10 -6.5 -17t-17.5 -7h-83q-10 0 -17 7t-7 17v187h-27q-24 0 -39.5 -8t-28.5 -29l-96 -159q-12 -15 -28 -15h-103q-9 0 -15 5zM415 284l113 151h-227z" />
    <glyph glyph-name="uni0472" unicode="&#x472;" horiz-adv-x="695" 
d="M643 349q0 -27 -2 -85q-4 -136 -80.5 -205t-212.5 -69q-137 0 -213 69t-80 205q-1 29 -1 85q0 57 1 86q4 133 82 204t211 71q132 0 210.5 -71t82.5 -204q2 -58 2 -86zM242 553.5q-40 -40.5 -42 -122.5l-1 -35h298l-1 35q-3 82 -43 122.5t-105 40.5q-66 0 -106 -40.5z
M454 146q39 40 42 123l1 41h-298l1 -41q2 -82 41.5 -122.5t106.5 -40.5t106 40z" />
    <glyph glyph-name="uni0473" unicode="&#x473;" horiz-adv-x="593" 
d="M548 260q0 -32 -1 -44q-5 -106 -69 -166t-181 -60q-118 0 -182 60t-69 166l-1 44l1 44q5 105 70 165.5t181 60.5q115 0 180 -60.5t70 -165.5q1 -12 1 -44zM215 404.5q-29 -33.5 -31 -97.5v-13h225v13q-2 64 -31 97.5t-81 33.5q-53 0 -82 -33.5zM378.5 115.5
q28.5 33.5 30.5 97.5v13h-225v-13q2 -64 31 -97.5t82 -33.5t81.5 33.5z" />
    <glyph glyph-name="uni0474" unicode="&#x474;" horiz-adv-x="682" 
d="M243 28l-214 642q-3 11 2.5 20.5t17.5 9.5h89q23 0 33 -25l167 -510l107 347q31 103 76 148.5t119 45.5h23q19 0 19 -25v-83q0 -10 -6.5 -17t-15.5 -7h-12q-27 0 -44.5 -22.5t-35.5 -80.5l-136 -443q-10 -28 -39 -28h-111q-29 0 -39 28z" />
    <glyph glyph-name="uni0475" unicode="&#x475;" horiz-adv-x="582" 
d="M225 6.5q-8 6.5 -13 18.5l-186 464q-1 3 -1 9q0 9 6.5 15.5t14.5 6.5h83q20 0 27 -19l130 -349l92 248q24 65 54 92t89 28h28q11 0 17.5 -7t6.5 -18v-57q0 -11 -6.5 -18t-16.5 -7q-27 0 -44 -16t-32 -56l-118 -316q-11 -25 -36 -25h-72q-15 0 -23 6.5z" />
    <glyph glyph-name="uni0490" unicode="&#x490;" horiz-adv-x="544" 
d="M529 833.5q7 -6.5 7 -17.5v-212q0 -11 -7 -17.5t-18 -6.5h-292v-556q0 -10 -7 -17t-18 -7h-92q-10 0 -17 7t-7 17v651q0 11 6.5 18t17.5 7h293v116q0 11 7 17.5t17 6.5h92q11 0 18 -6.5z" />
    <glyph glyph-name="uni0491" unicode="&#x491;" horiz-adv-x="446" 
d="M424 635q7 -7 7 -17v-181q0 -10 -6.5 -17t-17.5 -7h-208v-389q0 -10 -7 -17t-17 -7h-85q-10 0 -17 7t-7 17v472q0 11 7 17.5t17 6.5h209v98q0 10 7 17t17 7h84q10 0 17 -7z" />
    <glyph glyph-name="uni0492" unicode="&#x492;" horiz-adv-x="556" 
d="M529 693q7 -7 7 -18v-71q0 -11 -7 -17.5t-18 -6.5h-296v-196h127q11 0 18 -7t7 -17v-37q0 -10 -7.5 -17t-17.5 -7h-127v-275q0 -10 -7 -17t-18 -7h-88q-10 0 -17 7t-7 17v275h-52q-10 0 -17 7t-7 17v37q0 11 7 17.5t17 6.5h52v291q0 11 6.5 18t17.5 7h409q11 0 18 -7z
" />
    <glyph glyph-name="uni0493" unicode="&#x493;" horiz-adv-x="446" 
d="M424.5 513.5q6.5 -6.5 6.5 -17.5v-59q0 -10 -6.5 -17t-17.5 -7h-208v-119h104q10 0 17 -7t7 -17v-37q0 -10 -7 -17t-17 -7h-104v-185q0 -10 -7 -17t-17 -7h-85q-10 0 -17 7t-7 17v185h-46q-10 0 -17 7t-7 17v37q0 11 7 17.5t17 6.5h46v202q0 11 7 17.5t17 6.5h317
q11 0 17.5 -6.5z" />
    <glyph glyph-name="uni0494" unicode="&#x494;" horiz-adv-x="645" 
d="M552 374.5q57 -55.5 57 -164.5v-73q0 -104 -67 -161t-200 -57h-7q-10 0 -17 7t-7 17v62q0 10 7 17t17 7h7q70 0 98 28.5t28 79.5v61q0 57 -28 83.5t-90 26.5q-56 0 -93.5 -21.5t-37.5 -77.5v-185q0 -10 -7 -17t-18 -7h-92q-10 0 -17 7t-7 17v651q0 11 6.5 18t17.5 7h409
q11 0 18 -7t7 -18v-71q0 -11 -7 -17.5t-18 -6.5h-292v-202q27 25 68.5 38.5t93.5 13.5q114 0 171 -55.5z" />
    <glyph glyph-name="uni0495" unicode="&#x495;" horiz-adv-x="542" 
d="M472.5 245.5q51.5 -62.5 51.5 -163.5v-24q0 -116 -61 -182t-189 -66h-16q-10 0 -17 6.5t-7 17.5v59q0 10 7 17t17 7h11q51 0 78 18t36 48.5t9 76.5v16q0 59 -27.5 91t-80.5 32q-94 0 -94 -53v-122q0 -10 -6.5 -17t-17.5 -7h-76q-10 0 -17 7t-7 17v472q0 11 7 17.5t17 6.5
h317q11 0 17.5 -6.5t6.5 -17.5v-59q0 -10 -6.5 -17t-17.5 -7h-217v-145q54 40 138 40q93 0 144.5 -62.5z" />
    <glyph glyph-name="uni0496" unicode="&#x496;" horiz-adv-x="1058" 
d="M1036.5 120q7.5 -7 7.5 -17v-219q0 -10 -7 -17t-18 -7h-92q-10 0 -17 6.5t-7 17.5v116h-35q-15 2 -25 17l-171 274h-88v-267q0 -10 -6.5 -17t-17.5 -7h-88q-11 0 -18 7t-7 17v267h-88l-171 -274q-10 -17 -30 -17h-105q-10 0 -16.5 7t-6.5 16q0 7 3 11l207 328l-188 305
q-5 7 -5 12q0 9 5.5 15t15.5 6h101q25 0 35 -18l161 -265l82 1v258q0 10 7 17t18 7h88q11 0 17.5 -6.5t6.5 -17.5v-258l81 -1l161 265q11 18 36 18h101q10 0 15.5 -6t5.5 -15q0 -7 -4 -12l-189 -305l149 -235h79q10 0 17.5 -7z" />
    <glyph glyph-name="uni0497" unicode="&#x497;" horiz-adv-x="876" 
d="M861 100q7 -7 7 -17v-181q0 -10 -7 -17t-17 -7h-85q-10 0 -17 7t-7 17v98h-33l-1 3q-9 4 -15 12l-130 196h-60v-187q0 -10 -7 -17t-17 -7h-83q-10 0 -17 7t-7 17v187h-61l-131 -196q-12 -15 -28 -15h-103q-9 0 -15 5t-6 13q0 5 4 13l166 239l-144 219q-4 5 -4 13t5.5 13
t15.5 5h91q10 0 16 -4t12 -12l119 -186h63v178q0 11 7 17.5t17 6.5h83q10 0 17 -7t7 -17v-178h60l121 186q10 16 27 16h91q10 0 16 -5t6 -13q0 -6 -5 -13l-144 -219l113 -163h63q10 0 17 -7z" />
    <glyph glyph-name="uni0498" unicode="&#x498;" horiz-adv-x="647" 
d="M545.5 67.5q-54.5 -53.5 -149.5 -70.5v-113q0 -11 -6.5 -17.5t-17.5 -6.5h-92q-11 0 -18 7t-7 17v110q-101 12 -155.5 63t-61.5 119v2q0 8 6 13t15 5h91q11 0 18.5 -4.5t11.5 -15.5q12 -33 45.5 -52t87.5 -19q62 0 102 27t40 73q0 48 -35 73.5t-98 25.5h-73
q-10 0 -17 7.5t-7 17.5v59q0 11 7 18.5t17 7.5h70q53 0 84 22.5t31 68.5q0 40 -33 64.5t-85 24.5q-53 0 -86.5 -18.5t-41.5 -53.5q-4 -10 -10 -14.5t-17 -4.5h-94q-9 0 -15.5 6t-5.5 15q7 81 75 133.5t197 52.5q80 0 139 -26.5t90 -71t31 -96.5q0 -45 -18.5 -84.5
t-61.5 -63.5q52 -26 77 -70.5t25 -97.5q0 -79 -54.5 -132.5z" />
    <glyph glyph-name="uni0499" unicode="&#x499;" horiz-adv-x="536" 
d="M459 49.5q-40 -37.5 -110 -51.5v-96q0 -10 -7 -17t-17 -7h-84q-10 0 -17.5 7t-7.5 17v91q-89 11 -131 54.5t-46 91.5v1q0 7 5.5 12t13.5 5h83q18 0 26 -17q9 -28 35 -40.5t69 -12.5t69.5 17t26.5 51q0 67 -81 67h-55q-10 0 -16 6.5t-6 15.5v43q0 9 6 15.5t16 6.5h51
q36 0 54 13.5t18 42.5t-21.5 48t-66.5 19t-65.5 -14t-30.5 -45q-8 -17 -26 -17h-80q-8 0 -14 5.5t-5 12.5q2 40 25.5 75.5t72.5 58t123 22.5q111 0 163.5 -43t52.5 -104q0 -39 -14.5 -65t-48.5 -43q80 -30 80 -131q0 -57 -40 -94.5z" />
    <glyph glyph-name="uni049A" unicode="&#x49a;" horiz-adv-x="703" 
d="M682.5 120q7.5 -7 7.5 -17v-219q0 -10 -7 -17t-18 -7h-92q-10 0 -17 6.5t-7 17.5v116h-35q-20 0 -30 17l-171 274h-94v-267q0 -10 -7 -17t-18 -7h-92q-10 0 -17 7t-7 17v651q0 11 6.5 18t17.5 7h92q11 0 18 -7t7 -18v-257l86 -1l161 265q11 18 36 18h102q10 0 15.5 -6
t5.5 -15q0 -5 -5 -12l-188 -305l148 -235h85q10 0 17.5 -7z" />
    <glyph glyph-name="uni049B" unicode="&#x49b;" horiz-adv-x="602" 
d="M588 100q7 -7 7 -17v-181q0 -10 -7 -17t-17 -7h-85q-10 0 -17 7t-7 17v98h-34q-10 0 -16 3.5t-12 11.5l-130 195h-73v-186q0 -10 -6.5 -17t-17.5 -7h-83q-10 0 -17 7t-7 17v472q0 11 7 17.5t17 6.5h83q11 0 17.5 -6.5t6.5 -17.5v-178h74l119 186q6 8 12 12t15 4h92
q10 0 16 -5t6 -13q0 -3 -5 -13l-142 -220l111 -162h76q10 0 17 -7z" />
    </font>
</defs>
</svg>
